[OtakuSubs] Kyou kara Lovely Man SP [WEBDL] [1080p] [TELASA]

Category:
Date:
2024-03-05 12:47 UTC
Submitter:
Seeders:
1
File size:
1.1 GiB
Completed:
350
Info hash:
9c79bf15c65042845489ed5472b9ae4c49522d80
> Support us so we can upload dramas or films from U-NEXT, HULU, FOD, AMAZON PRIME, ABEMA-TV, TELASA, LEMINO > USDT TRC-20: **TLFok7HrQmLrytUfBSipEWJ6yoytmDNrXF** > Skrill: **edibudi407@gmail.com** ![alt text](https://i.ibb.co/94qzgTW/Upscales-ai-1709641972422.webp "Kyou kara Lovely Man SP") ![alt text](https://i.ibb.co/F6pVXZx/Kyou-kara-Lovely-Man-SP-EP01-1080p-TELASA-WEB-DL-AAC2-0-H-264-Otaku-Subs-mkv.jpg "Kyou kara Lovely Man SP") ![alt text](https://i.ibb.co/YN4ndwG/Kyou-kara-Lovely-Man-SP-EP02-1080p-TELASA-WEB-DL-AAC2-0-H-264-Otaku-Subs-mkv.jpg "Kyou kara Lovely Man SP") ![alt text](https://i.ibb.co/nR9rnPr/Kyou-kara-Lovely-Man-SP-EP03-END-1080p-TELASA-WEB-DL-AAC2-0-H-264-Otaku-Subs-mkv.jpg "Kyou kara Lovely Man SP") ``` General Unique ID : 15007616764510468012457547209766576558 (0xB4A5CA25644DB30F1E308F54D4BA1AE) Complete name : Kyou.kara.Lovely.Man.SP.EP01.1080p.TELASA.WEB-DL.AAC2.0.H.264-OtakuSubs.mkv Format : Matroska Format version : Version 4 File size : 370 MiB Duration : 16 min 37 s Overall bit rate : 3 113 kb/s Frame rate : 29.970 FPS Movie name : Kyou kara Lovely Man SP - Ripping by OtakuSubs Encoded date : 2024-03-05 12:41:06 UTC Writing application : mkvmerge v80.0 ('Roundabout') 64-bit Writing library : libebml v1.4.4 + libmatroska v1.7.1 / Lavf60.10.101 DATE : 2024-03-05T21:37:01.6163022+09:00 Video ID : 1 Format : AVC Format/Info : Advanced Video Codec Format profile : High@L4.1 Format settings : CABAC / 5 Ref Frames Format settings, CABAC : Yes Format settings, Reference frames : 5 frames Codec ID : V_MPEG4/ISO/AVC Duration : 16 min 37 s Bit rate : 3 000 kb/s Width : 1 920 pixels Height : 1 080 pixels Display aspect ratio : 16:9 Frame rate mode : Constant Frame rate : 29.970 (30000/1001) FPS Color space : YUV Chroma subsampling : 4:2:0 Bit depth : 8 bits Scan type : Progressive Bits/(Pixel*Frame) : 0.048 Stream size : 355 MiB (96%) Title : und Writing library : x264 core 142 r2506 600868f Encoding settings : cabac=1 / ref=5 / deblock=1:0:0 / analyse=0x3:0x113 / me=umh / subme=9 / psy=1 / psy_rd=1.00:0.00 / mixed_ref=1 / me_range=32 / chroma_me=1 / trellis=1 / 8x8dct=1 / cqm=0 / deadzone=21,11 / fast_pskip=1 / chroma_qp_offset=-2 / threads=16 / lookahead_threads=1 / sliced_threads=0 / nr=0 / decimate=1 / interlaced=0 / bluray_compat=0 / stitchable=1 / constrained_intra=0 / bframes=3 / b_pyramid=2 / b_adapt=1 / b_bias=0 / direct=3 / weightb=1 / open_gop=0 / weightp=2 / keyint=60 / keyint_min=6 / scenecut=0 / intra_refresh=0 / rc_lookahead=40 / rc=abr / mbtree=1 / bitrate=3000 / ratetol=1.0 / qcomp=0.60 / qpmin=0 / qpmax=69 / qpstep=4 / vbv_maxrate=4500 / vbv_bufsize=6750 / nal_hrd=none / filler=0 / ip_ratio=1.40 / aq=1:1.00 Default : Yes Forced : No Audio ID : 2 Format : AAC LC Format/Info : Advanced Audio Codec Low Complexity Codec ID : 2 / A_AAC-2 Duration : 16 min 37 s Bit rate : 128 kb/s Channel(s) : 2 channels Channel layout : L R Sampling rate : 44.1 kHz Frame rate : 43.066 FPS (1024 SPF) Compression mode : Lossy Stream size : 15.2 MiB (4%) Title : 日本語 Language : Japanese Default : Yes Forced : No ```

File list

  • [OtakuSubs] Kyou kara Lovely Man SP [WEBDL] [1080p] [TELASA]
    • Kyou.kara.Lovely.Man.SP.EP01.1080p.TELASA.WEB-DL.AAC2.0.H.264-OtakuSubs.mkv (370.0 MiB)
    • Kyou.kara.Lovely.Man.SP.EP02.1080p.TELASA.WEB-DL.AAC2.0.H.264-OtakuSubs.mkv (341.4 MiB)
    • Kyou.kara.Lovely.Man.SP.EP03.END.1080p.TELASA.WEB-DL.AAC2.0.H.264-OtakuSubs.mkv (390.3 MiB)