[MagicStar] Tonari no Nurse-aid - Original Story - Koshitsu no Nurse-aid EP01 [WEBDL] [1080p] [HULU] [JPN_SUB]

Category:
Date:
2024-03-05 11:02 UTC
Submitter:
Seeders:
2
Information:
Leechers:
0
File size:
434.9 MiB
Completed:
974
Info hash:
79ece4741c9a69b2cf055125f8dc5d8aa3c2393e
HD 1080p from HULU JAPAN. ![alt text](https://i.ibb.co/thYMV2d/5cc3ee02-032d-445e-99a4-3c8bc081ad2cb.jpg) ![alt text](https://i.ibb.co/WztzKJg/Tonari-no-Nurseaid-Original-Story-Koshitsu-no-Nurseaid-EP01-1080p-HULU-WEB-DL-AAC2-0-H-264-Magic-Sta.jpg) ``` General Unique ID : 216801193803455717775638994581410587273 (0xA31A641FF2DA2B206486DE09133CA289) Complete name : Tonari.no.Nurseaid.Original.Story.Koshitsu.no.Nurseaid.EP01.1080p.HULU.WEB-DL.AAC2.0.H.264-MagicStar.mkv Format : Matroska Format version : Version 4 File size : 435 MiB Duration : 12 min 3 s Overall bit rate : 5 045 kb/s Frame rate : 29.970 FPS Encoded date : 2024-03-05 03:01:58 UTC Writing application : mkvmerge v50.0.0 ('Awakenings') 64-bit Writing library : libebml v1.4.0 + libmatroska v1.6.2 Cover : Yes Attachments : cover.png Video ID : 1 Format : AVC Format/Info : Advanced Video Codec Format profile : High@L4 Format settings : CABAC / 4 Ref Frames Format settings, CABAC : Yes Format settings, Reference fra : 4 frames Codec ID : V_MPEG4/ISO/AVC Duration : 12 min 3 s Bit rate : 4 788 kb/s Width : 1 920 pixels Height : 1 080 pixels Display aspect ratio : 16:9 Frame rate mode : Constant Frame rate : 29.970 (29970/1000) FPS Original frame rate : 29.970 (30000/1001) FPS Color space : YUV Chroma subsampling : 4:2:0 Bit depth : 8 bits Scan type : Progressive Bits/(Pixel*Frame) : 0.077 Stream size : 413 MiB (95%) Default : Yes Forced : No Color range : Limited Color primaries : BT.709 Transfer characteristics : BT.709 Matrix coefficients : BT.709 Audio ID : 2 Format : AAC LC Format/Info : Advanced Audio Codec Low Complexity Codec ID : A_AAC-2 Duration : 12 min 3 s Bit rate : 253 kb/s Channel(s) : 2 channels Channel layout : L R Sampling rate : 48.0 kHz Frame rate : 46.875 FPS (1024 SPF) Compression mode : Lossy Stream size : 21.8 MiB (5%) Title : 日本語 [オリジナル] Language : Japanese Default : Yes Forced : No ```

File list

Do you will upload [Saka no Ue no Akai Yane] from wowow?

MagicStar-subs (uploader)

User
@Nblh0702 Upload later.
Thank you for sharing!