[MagicStar] Shoujiki Fudousan Season2 EP06 [WEBDL] [1080p] [AMZN] [JPN_ENG_CHS_CHT_SUB]

Category:
Date:
2024-03-05 11:00 UTC
Submitter:
Seeders:
5
File size:
2.6 GiB
Completed:
1714
Info hash:
1d3a3ae3dc54bd762e9b32166dd76e95835a0146
HD 1080p from Prime Video. Use CBR bitrate mode. Japanese, English and Chinese subtitles added. ************** We are planning to upload all Prime Video Japan Dramas and Movies, we need your Support! ************** Support Us Ali (Zhifubao / QR code): https://i.ibb.co/FWV2ggm/1660626347125.png PayPalMe: https://www.paypal.com/paypalme/sakuragikenji ETH (ERC20): 0xea3286E176099E8C9aBaf25A0edf231374C04E89 USDT (BTC / OMNI): 1Lemw6fu5vG3NdvWGxDxsPX7T7yUb3rNzu ************** ![alt text](https://i.ibb.co/gMs8ggS/91-SQ90-Jh-QXL.jpg) ![alt text](https://i.ibb.co/hXspYL1/Shoujiki-Fudousan-S02-EP06-1080p-AMZN-WEB-DL-DDP2-0-H-264-Magic-Star-mkv.jpg) ``` General Unique ID : 53783059999420026483657730218094185372 (0x28763D9658E07F6DE781EF9FB1774B9C) Complete name : Shoujiki.Fudousan.S02EP06.1080p.AMZN.WEB-DL.DDP2.0.H.264-MagicStar.mkv Format : Matroska Format version : Version 4 File size : 2.64 GiB Duration : 44 min 30 s Overall bit rate mode : Constant Overall bit rate : 8 487 kb/s Frame rate : 29.970 FPS Encoded date : 2024-02-21 07:45:25 UTC Writing application : mkvmerge v50.0.0 ('Awakenings') 64-bit Writing library : libebml v1.4.0 + libmatroska v1.6.2 Cover : Yes Attachments : cover.jpg Video ID : 1 Format : AVC Format/Info : Advanced Video Codec Format profile : High@L4 Format settings : CABAC / 4 Ref Frames Format settings, CABAC : Yes Format settings, Reference fra : 4 frames Codec ID : V_MPEG4/ISO/AVC Duration : 44 min 30 s Bit rate mode : Constant Bit rate : 8 257 kb/s Nominal bit rate : 10 000 kb/s Width : 1 920 pixels Height : 1 080 pixels Display aspect ratio : 16:9 Frame rate mode : Constant Frame rate : 29.970 (29970/1000) FPS Original frame rate : 29.970 (30000/1001) FPS Color space : YUV Chroma subsampling : 4:2:0 Bit depth : 8 bits Scan type : Progressive Bits/(Pixel*Frame) : 0.133 Stream size : 2.57 GiB (97%) Default : Yes Forced : No Color range : Limited Color primaries : BT.709 Transfer characteristics : BT.709 Matrix coefficients : BT.709 Audio ID : 2 Format : E-AC-3 Format/Info : Enhanced AC-3 Commercial name : Dolby Digital Plus Codec ID : A_EAC3 Duration : 44 min 30 s Bit rate mode : Constant Bit rate : 224 kb/s Channel(s) : 2 channels Channel layout : L R Sampling rate : 48.0 kHz Frame rate : 31.250 FPS (1536 SPF) Compression mode : Lossy Stream size : 71.3 MiB (3%) Title : 日本語 [オリジナル] Language : Japanese Service kind : Complete Main Default : Yes Forced : No ```

File list

  • [MagicStar] Shoujiki Fudousan Season2 EP06 [WEBDL] [1080p] [AMZN] [JPN_ENG_CHS_CHT_SUB]
    • Shoujiki.Fudousan.S02EP06.1080p.AMZN.WEB-DL.DDP2.0.H.264-MagicStar.Chs.srt (49.2 KiB)
    • Shoujiki.Fudousan.S02EP06.1080p.AMZN.WEB-DL.DDP2.0.H.264-MagicStar.Cht.srt (49.5 KiB)
    • Shoujiki.Fudousan.S02EP06.1080p.AMZN.WEB-DL.DDP2.0.H.264-MagicStar.Eng.srt (52.1 KiB)
    • Shoujiki.Fudousan.S02EP06.1080p.AMZN.WEB-DL.DDP2.0.H.264-MagicStar.Jpn.srt (59.8 KiB)
    • Shoujiki.Fudousan.S02EP06.1080p.AMZN.WEB-DL.DDP2.0.H.264-MagicStar.mkv (2.6 GiB)
Thank you for translations !