[MagicStar] Mars - Zero no Kakumei - EP06 [WEBDL] [1080p] [JPN_SUB] [Audio Description]

Category:
Date:
2024-03-05 11:00 UTC
Submitter:
Seeders:
1
Information:
Leechers:
0
File size:
923.8 MiB
Completed:
371
Info hash:
e23fc71dc4db500bb37a9a7fdc4a89da31c9e3c2
HD 1080p from TVer. Japanese subtitles added. Audio Description. ![alt text](https://i.ibb.co/6N4mr0V/Mars-0-revolution-1.jpg) ![alt text](https://i.ibb.co/DQD4rJf/Magic-Star-Mars-Zero-no-Kakumei-EP06-WEBDL-1080p-Audio-Description-mkv.jpg) ``` General Unique ID : 225395908295967600902946098731378494258 (0xA991AC4406048847458A38ADA69B4B32) Complete name : [MagicStar] Mars Zero no Kakumei EP06 [WEBDL] [1080p] [Audio Description].mkv Format : Matroska Format version : Version 4 File size : 924 MiB Duration : 45 min 7 s Overall bit rate : 2 862 kb/s Frame rate : 29.970 FPS Encoded date : 2024-03-05 10:38:53 UTC Writing application : mkvmerge v50.0.0 ('Awakenings') 64-bit Writing library : libebml v1.4.0 + libmatroska v1.6.2 Video ID : 1 Format : AVC Format/Info : Advanced Video Codec Format profile : High@L4 Format settings : CABAC / 4 Ref Frames Format settings, CABAC : Yes Format settings, Reference fra : 4 frames Codec ID : V_MPEG4/ISO/AVC Duration : 45 min 7 s Bit rate : 2 667 kb/s Width : 1 920 pixels Height : 1 080 pixels Display aspect ratio : 16:9 Frame rate mode : Constant Frame rate : 29.970 (29970/1000) FPS Original frame rate : 29.970 (30000/1001) FPS Color space : YUV Chroma subsampling : 4:2:0 Bit depth : 8 bits Scan type : Progressive Bits/(Pixel*Frame) : 0.043 Stream size : 861 MiB (93%) Writing library : Zencoder Video Encoding System Default : Yes Forced : No Color range : Limited Matrix coefficients : BT.709 Audio ID : 2 Format : AAC LC Format/Info : Advanced Audio Codec Low Complexity Codec ID : A_AAC-2 Duration : 45 min 7 s Bit rate : 192 kb/s Channel(s) : 2 channels Channel layout : L R Sampling rate : 48.0 kHz Frame rate : 46.875 FPS (1024 SPF) Compression mode : Lossy Stream size : 61.9 MiB (7%) Title : 日本語 [解説放送音声] Language : Japanese Default : Yes Forced : No ```

File list