[MagicStar] Sensei Sayounara EP07 [WEBDL] [1080p] [HULU] [JPN_SUB]

Category:
Date:
2024-03-05 10:36 UTC
Submitter:
Seeders:
6
Information:
Leechers:
0
File size:
622.9 MiB
Completed:
616
Info hash:
9b7267ed16fc2f3f9c46f7297b61d05908a7469b
HD 1080p from HULU JAPAN. ![alt text](https://i.ibb.co/NSqpsvX/bcddeefa-025b-4ff7-b91d-752268229267b.jpg) ![alt text](https://i.ibb.co/jWYtnJ5/Sensei-Sayounara-EP07-1080p-HULU-WEB-DL-AAC2-0-H-264-Magic-Star-mkv.jpg) ``` General Unique ID : 336212828244882010611239224252960073373 (0xFCF03C40942B62D59350AD64D343E69D) Complete name : Sensei.Sayounara.EP07.1080p.HULU.WEB-DL.AAC2.0.H.264-MagicStar.mkv Format : Matroska Format version : Version 4 File size : 623 MiB Duration : 23 min 15 s Overall bit rate : 3 746 kb/s Frame rate : 23.976 FPS Encoded date : 2024-03-05 02:33:36 UTC Writing application : mkvmerge v50.0.0 ('Awakenings') 64-bit Writing library : libebml v1.4.0 + libmatroska v1.6.2 Cover : Yes Attachments : cover.png Video ID : 1 Format : AVC Format/Info : Advanced Video Codec Format profile : High@L4 Format settings : CABAC / 4 Ref Frames Format settings, CABAC : Yes Format settings, Reference fra : 4 frames Codec ID : V_MPEG4/ISO/AVC Duration : 23 min 14 s Bit rate : 3 489 kb/s Width : 1 920 pixels Height : 1 080 pixels Display aspect ratio : 16:9 Frame rate mode : Constant Frame rate : 23.976 (24000/1001) FPS Color space : YUV Chroma subsampling : 4:2:0 Bit depth : 8 bits Scan type : Progressive Bits/(Pixel*Frame) : 0.070 Stream size : 580 MiB (93%) Default : Yes Forced : No Color range : Limited Color primaries : BT.709 Transfer characteristics : BT.709 Matrix coefficients : BT.709 Audio ID : 2 Format : AAC LC Format/Info : Advanced Audio Codec Low Complexity Codec ID : A_AAC-2 Duration : 23 min 15 s Bit rate : 253 kb/s Channel(s) : 2 channels Channel layout : L R Sampling rate : 48.0 kHz Frame rate : 46.875 FPS (1024 SPF) Compression mode : Lossy Stream size : 42.1 MiB (7%) Title : 日本語 [オリジナル] Language : Japanese Default : Yes Forced : No ```

File list