[MagicStar] Celeb Danshi wa Te ni Oemasen EP07 [WEBDL] [1080p] [ABEMA-TV] [JPN_SUB]

Category:
Date:
2024-03-05 10:36 UTC
Submitter:
Seeders:
3
Information:
Leechers:
1
File size:
709.4 MiB
Completed:
494
Info hash:
72026bd788e9944a0c5dcc42140e34ddc9498aac
HD 1080p from Abema TV. Japanese subtitles added. ![alt text](https://i.ibb.co/f4QqXNw/78d6d7065b.jpg) ![alt text](https://i.ibb.co/vvRGM2f/Celeb-Danshi-wa-Te-ni-Oemasen-EP07-1080p-ABEMA-TV-WEB-DL-AAC2-0-H-264-Magic-Star-mkv.jpg) ``` General Unique ID : 109056119393353084557790637799793252651 (0x520B71D10851ECE4142A1FC2FCC0592B) Complete name : Celeb.Danshi.wa.Te.ni.Oemasen.EP07.1080p.ABEMA-TV.WEB-DL.AAC2.0.H.264-MagicStar.mkv Format : Matroska Format version : Version 4 File size : 709 MiB Duration : 23 min 37 s Overall bit rate mode : Variable Overall bit rate : 4 199 kb/s Frame rate : 29.970 FPS Encoded date : 2024-03-05 02:12:54 UTC Writing application : mkvmerge v50.0.0 ('Awakenings') 64-bit Writing library : libebml v1.4.0 + libmatroska v1.6.2 Video ID : 1 Format : AVC Format/Info : Advanced Video Codec Format profile : Main@L3.1 Format settings : CABAC / 4 Ref Frames Format settings, CABAC : Yes Format settings, Reference fra : 4 frames Codec ID : V_MPEG4/ISO/AVC Duration : 23 min 37 s Bit rate mode : Variable Bit rate : 4 004 kb/s Maximum bit rate : 40.0 Mb/s Width : 1 920 pixels Height : 1 080 pixels Display aspect ratio : 16:9 Frame rate mode : Constant Frame rate : 29.970 (29970/1000) FPS Original frame rate : 29.970 (30000/1001) FPS Color space : YUV Chroma subsampling : 4:2:0 Bit depth : 8 bits Scan type : Progressive Bits/(Pixel*Frame) : 0.064 Stream size : 676 MiB (95%) Default : Yes Forced : No Audio ID : 2 Format : AAC LC Format/Info : Advanced Audio Codec Low Complexity Codec ID : A_AAC-2 Duration : 23 min 37 s Bit rate : 192 kb/s Channel(s) : 2 channels Channel layout : L R Sampling rate : 44.1 kHz Frame rate : 43.066 FPS (1024 SPF) Compression mode : Lossy Stream size : 32.5 MiB (5%) Title : 日本語 [オリジナル] Language : Japanese Default : Yes Forced : No ```

File list