[MagicStar] Ai no Nai Koibitotachi EP07 [WEBDL] [1080p] [ABEMA-TV] [JPN_SUB]

Category:
Date:
2024-03-05 10:35 UTC
Submitter:
Seeders:
5
Information:
Leechers:
1
File size:
1.4 GiB
Completed:
834
Info hash:
ae03a2077363cdcf11e4caeb6c965b8b45ed4daa
HD 1080p from Abema TV. Japanese subtitles added. Audio description added. ![alt text](https://i.ibb.co/DrnXfFG/SID0096288.jpg) ![alt text](https://i.ibb.co/fSvtjLg/Ai-no-Nai-Koibitotachi-EP07-1080p-ABEMA-TV-WEB-DL-AAC2-0-H-264-Magic-Star-mkv.jpg) ``` General Unique ID : 235662736340737266382988331342403873585 (0xB14AFDF8440DB529E0752BD052D62B31) Complete name : Ai.no.Nai.Koibitotachi.EP07.1080p.ABEMA-TV.WEB-DL.AAC2.0.H.264-MagicStar.mkv Format : Matroska Format version : Version 4 File size : 1.39 GiB Duration : 45 min 9 s Overall bit rate mode : Variable Overall bit rate : 4 393 kb/s Frame rate : 29.970 FPS Encoded date : 2024-03-05 02:06:36 UTC Writing application : mkvmerge v50.0.0 ('Awakenings') 64-bit Writing library : libebml v1.4.0 + libmatroska v1.6.2 Video ID : 1 Format : AVC Format/Info : Advanced Video Codec Format profile : Main@L3.1 Format settings : CABAC / 4 Ref Frames Format settings, CABAC : Yes Format settings, Reference fra : 4 frames Codec ID : V_MPEG4/ISO/AVC Duration : 45 min 8 s Bit rate mode : Variable Bit rate : 4 004 kb/s Maximum bit rate : 40.0 Mb/s Width : 1 920 pixels Height : 1 080 pixels Display aspect ratio : 16:9 Frame rate mode : Constant Frame rate : 29.970 (29970/1000) FPS Original frame rate : 29.970 (30000/1001) FPS Color space : YUV Chroma subsampling : 4:2:0 Bit depth : 8 bits Scan type : Progressive Bits/(Pixel*Frame) : 0.064 Stream size : 1.26 GiB (91%) Default : Yes Forced : No Audio #1 ID : 2 Format : AAC LC Format/Info : Advanced Audio Codec Low Complexity Codec ID : A_AAC-2 Duration : 45 min 9 s Bit rate : 192 kb/s Channel(s) : 2 channels Channel layout : L R Sampling rate : 44.1 kHz Frame rate : 43.066 FPS (1024 SPF) Compression mode : Lossy Stream size : 62.0 MiB (4%) Title : 日本語 [オリジナル] Language : Japanese Default : Yes Forced : No Audio #2 ID : 3 Format : AAC LC Format/Info : Advanced Audio Codec Low Complexity Codec ID : A_AAC-2 Duration : 45 min 9 s Bit rate : 192 kb/s Channel(s) : 2 channels Channel layout : L R Sampling rate : 44.1 kHz Frame rate : 43.066 FPS (1024 SPF) Compression mode : Lossy Stream size : 62.3 MiB (4%) Title : 日本語 [解説放送音声] Language : Japanese Default : No Forced : No ```

File list