[MagicStar] Ossan no Pants ga Nandatte Ii Janaidesuka! EP09 [WEBDL] [1080p] [FOD] [JPN_SUB]

Category:
Date:
2024-03-05 10:35 UTC
Submitter:
Seeders:
2
Information:
Leechers:
1
File size:
1.5 GiB
Completed:
729
Info hash:
47ca42e45e262fbf7ca9b21959c7847b1a5dd38f
HD 1080p from FOD. Japanese subtitles added. ![alt text](https://i.ibb.co/mh7TnX3/SID0097752.jpg) ![alt text](https://i.ibb.co/XJNKq6Z/Ossan-no-Pants-ga-Nandatte-Ii-Janaidesuka-EP09-1080p-FOD-WEB-DL-AAC2-0-H-264-Magic-Star-mkv.jpg) ``` General Unique ID : 192160983247057264237213063651510383977 (0x9090DBF31434EAB333BE690B1C66F569) Complete name : Ossan.no.Pants.ga.Nandatte.Ii.Janaidesuka.EP09.1080p.FOD.WEB-DL.AAC2.0.H.264-MagicStar.mkv Format : Matroska Format version : Version 4 File size : 1.52 GiB Duration : 44 min 5 s Overall bit rate mode : Variable Overall bit rate : 4 930 kb/s Frame rate : 29.970 FPS Encoded date : 2024-03-05 01:58:06 UTC Writing application : mkvmerge v50.0.0 ('Awakenings') 64-bit Writing library : libebml v1.4.0 + libmatroska v1.6.2 Video ID : 1 Format : AVC Format/Info : Advanced Video Codec Format profile : High@L4.1 Format settings : CABAC / 2 Ref Frames Format settings, CABAC : Yes Format settings, Reference fra : 2 frames Codec ID : V_MPEG4/ISO/AVC Duration : 44 min 5 s Bit rate mode : Variable Bit rate : 4 735 kb/s Maximum bit rate : 15.0 Mb/s Width : 1 920 pixels Height : 1 080 pixels Display aspect ratio : 16:9 Frame rate mode : Constant Frame rate : 29.970 (29970/1000) FPS Original frame rate : 29.970 (30000/1001) FPS Color space : YUV Chroma subsampling : 4:2:0 Bit depth : 8 bits Scan type : Progressive Bits/(Pixel*Frame) : 0.076 Stream size : 1.46 GiB (96%) Default : Yes Forced : No Color range : Limited Color primaries : BT.709 Transfer characteristics : BT.709 Matrix coefficients : BT.709 Audio ID : 2 Format : AAC LC Format/Info : Advanced Audio Codec Low Complexity Codec ID : A_AAC-2 Duration : 44 min 5 s Bit rate : 192 kb/s Channel(s) : 2 channels Channel layout : L R Sampling rate : 48.0 kHz Frame rate : 46.875 FPS (1024 SPF) Compression mode : Lossy Stream size : 60.5 MiB (4%) Title : 日本語 [オリジナル] Language : Japanese Default : Yes Forced : No ```

File list