[MagicStar] Chikyuu no Arukikata EP08 [WEBDL] [1080p] [JPN_SUB]

Category:
Date:
2024-03-05 10:35 UTC
Submitter:
Seeders:
9
Information:
Leechers:
0
File size:
476.4 MiB
Completed:
804
Info hash:
cf016d32fe57753ffa1403b7e986eba18ddf0ae4
HD 1080p from TVer. Japanese subtitles added. ![alt text](https://i.ibb.co/ZhGN6dy/b101381-w1.jpg) ![alt text](https://i.ibb.co/dBZpwZj/Magic-Star-Chikyuu-no-Arukikata-EP08-WEBDL-1080p-mkv.jpg) ``` General Unique ID : 160037138085884514756166806582924475801 (0x78660819E91B6D87516F1B08DDF8FD99) Complete name : [MagicStar] Chikyuu no Arukikata EP08 [WEBDL] [1080p].mkv Format : Matroska Format version : Version 4 File size : 476 MiB Duration : 23 min 4 s Overall bit rate : 2 887 kb/s Frame rate : 29.970 FPS Encoded date : 2024-03-05 01:41:35 UTC Writing application : mkvmerge v50.0.0 ('Awakenings') 64-bit Writing library : libebml v1.4.0 + libmatroska v1.6.2 Video ID : 1 Format : AVC Format/Info : Advanced Video Codec Format profile : High@L4 Format settings : CABAC / 4 Ref Frames Format settings, CABAC : Yes Format settings, Reference fra : 4 frames Codec ID : V_MPEG4/ISO/AVC Duration : 23 min 3 s Bit rate : 2 693 kb/s Width : 1 920 pixels Height : 1 080 pixels Display aspect ratio : 16:9 Frame rate mode : Constant Frame rate : 29.970 (29970/1000) FPS Original frame rate : 29.970 (30000/1001) FPS Color space : YUV Chroma subsampling : 4:2:0 Bit depth : 8 bits Scan type : Progressive Bits/(Pixel*Frame) : 0.043 Stream size : 444 MiB (93%) Writing library : Zencoder Video Encoding System Default : Yes Forced : No Color range : Limited Color primaries : BT.709 Transfer characteristics : BT.709 Matrix coefficients : BT.709 Audio ID : 2 Format : AAC LC Format/Info : Advanced Audio Codec Low Complexity Codec ID : A_AAC-2 Duration : 23 min 4 s Bit rate : 192 kb/s Channel(s) : 2 channels Channel layout : L R Sampling rate : 48.0 kHz Frame rate : 46.875 FPS (1024 SPF) Compression mode : Lossy Stream size : 31.6 MiB (7%) Title : 日本語 [オリジナル] Language : Japanese Default : Yes Forced : No ```

File list