[MagicStar] Rikon Shinai Otoko - Sareo to Oyome no Damashi Ai - EP07 [WEBDL] [1080p] [ABEMA-TV] [JPN_SUB]

Category:
Date:
2024-03-05 10:35 UTC
Submitter:
Seeders:
6
File size:
725.4 MiB
Completed:
1444
Info hash:
bb28b0c2a4e8c5ba59a5811c3e1365355e3ff3f9
HD 1080p from Abema TV. Japanese subtitles added. ![alt text](https://i.ibb.co/LgLDM5M/cd1096eb939f5b3d2499d8a9e013e097b1a1f6f52dd4165d46d032e0aa57d9e1.jpg) ![alt text](https://i.ibb.co/T1rMLd4/Rikon-Shinai-Otoko-Sareo-to-Oyome-no-Damashi-Ai-EP07-1080p-ABEMA-TV-WEB-DL-AAC2-0-H-264-Magic-Star-m.jpg) ``` General Unique ID : 107973342662485343510560523223460779738 (0x513AE8CD51C895207A5962411D5496DA) Complete name : Rikon.Shinai.Otoko.Sareo.to.Oyome.no.Damashi.Ai.EP07.1080p.ABEMA-TV.WEB-DL.AAC2.0.H.264-MagicStar.mkv Format : Matroska Format version : Version 4 File size : 725 MiB Duration : 24 min 9 s Overall bit rate mode : Variable Overall bit rate : 4 199 kb/s Frame rate : 29.970 FPS Encoded date : 2024-03-05 01:55:12 UTC Writing application : mkvmerge v50.0.0 ('Awakenings') 64-bit Writing library : libebml v1.4.0 + libmatroska v1.6.2 Video ID : 1 Format : AVC Format/Info : Advanced Video Codec Format profile : Main@L3.1 Format settings : CABAC / 4 Ref Frames Format settings, CABAC : Yes Format settings, Reference fra : 4 frames Codec ID : V_MPEG4/ISO/AVC Duration : 24 min 9 s Bit rate mode : Variable Bit rate : 4 003 kb/s Maximum bit rate : 40.0 Mb/s Width : 1 920 pixels Height : 1 080 pixels Display aspect ratio : 16:9 Frame rate mode : Constant Frame rate : 29.970 (29970/1000) FPS Original frame rate : 29.970 (30000/1001) FPS Color space : YUV Chroma subsampling : 4:2:0 Bit depth : 8 bits Scan type : Progressive Bits/(Pixel*Frame) : 0.064 Stream size : 691 MiB (95%) Default : Yes Forced : No Audio ID : 2 Format : AAC LC Format/Info : Advanced Audio Codec Low Complexity Codec ID : A_AAC-2 Duration : 24 min 9 s Bit rate : 192 kb/s Channel(s) : 2 channels Channel layout : L R Sampling rate : 44.1 kHz Frame rate : 43.066 FPS (1024 SPF) Compression mode : Lossy Stream size : 33.4 MiB (5%) Title : 日本語 [オリジナル] Language : Japanese Default : Yes Forced : No ```

File list