[MagicStar] Koisuru Keigo 24-ji EP08 [WEBDL] [1080p] [JPN_SUB]

Category:
Date:
2024-03-05 10:35 UTC
Submitter:
Seeders:
4
Information:
Leechers:
1
File size:
495.0 MiB
Completed:
992
Info hash:
65be4eb090c326f2f50385a3440db70389c9a90e
HD 1080p from TVer. Japanese subtitles added. ![alt text](https://i.ibb.co/M2DHqJG/4383668a-cdbe-4e98-a913-171bcc3049f3.jpg) ![alt text](https://i.ibb.co/fxPFWkQ/Magic-Star-Koisuru-Keigo-24-ji-EP08-WEBDL-1080p-mkv.jpg) ``` General Unique ID : 70256768514553667588855951692862634560 (0x34DAF62021F8C56029A8C971B388BA40) Complete name : [MagicStar] Koisuru Keigo 24-ji EP08 [WEBDL] [1080p].mkv Format : Matroska Format version : Version 4 File size : 495 MiB Duration : 23 min 58 s Overall bit rate : 2 887 kb/s Frame rate : 29.970 FPS Encoded date : 2024-03-05 01:40:05 UTC Writing application : mkvmerge v50.0.0 ('Awakenings') 64-bit Writing library : libebml v1.4.0 + libmatroska v1.6.2 Video ID : 1 Format : AVC Format/Info : Advanced Video Codec Format profile : High@L4 Format settings : CABAC / 4 Ref Frames Format settings, CABAC : Yes Format settings, Reference fra : 4 frames Codec ID : V_MPEG4/ISO/AVC Duration : 23 min 58 s Bit rate : 2 694 kb/s Width : 1 920 pixels Height : 1 080 pixels Display aspect ratio : 16:9 Frame rate mode : Constant Frame rate : 29.970 (29970/1000) FPS Original frame rate : 29.970 (30000/1001) FPS Color space : YUV Chroma subsampling : 4:2:0 Bit depth : 8 bits Scan type : Progressive Bits/(Pixel*Frame) : 0.043 Stream size : 462 MiB (93%) Writing library : Zencoder Video Encoding System Default : Yes Forced : No Color range : Limited Matrix coefficients : BT.709 Audio ID : 2 Format : AAC LC Format/Info : Advanced Audio Codec Low Complexity Codec ID : A_AAC-2 Duration : 23 min 58 s Bit rate : 192 kb/s Channel(s) : 2 channels Channel layout : L R Sampling rate : 48.0 kHz Frame rate : 46.875 FPS (1024 SPF) Compression mode : Lossy Stream size : 32.8 MiB (7%) Title : 日本語 [オリジナル] Language : Japanese Default : Yes Forced : No ```

File list