The.Tunnel.to.Summer.the.Exit.of.Goodbyes.2022.1080p.BluRay.10-Bit.Dual-Audio.FLAC5.1.x265-YURASUKA (Natsu e no Tunnel, Sayonara no Deguchi)

Category:
Date:
2024-03-02 05:49 UTC
Submitter:
Seeders:
14
Information:
Leechers:
0
File size:
3.7 GiB
Completed:
554
Info hash:
ac5638efd78d5569d102d6d8624cd44afde1d9f1
The Tunnel to Summer, the Exit of Goodbyes / Natsu e no Tunnel, Sayonara no Deguchi (2022) A/V Source: [Arg0@Nyaa](https://nyaa.si/view/1762449) (JPBD) English Audio + PGS Subtitles: kekku@U2 (USBD) Subtitles Source: [EMBER@Nyaa](https://nyaa.si/view/1762228) [GJM, TakaNishi] [Encode Comparison](https://slow.pics/c/PuLNFsE9) ``` Complete name : The.Tunnel.to.Summer.the.Exit.of.Goodbyes.2022.1080p.BluRay.10-Bit.Dual-Audio.FLAC5.1.x265-YURASUKA.mkv Format : Matroska Format version : Version 4 File size : 3.68 GiB Duration : 1 h 22 min Overall bit rate mode : Variable Overall bit rate : 6 376 kb/s Frame rate : 23.976 FPS Movie name : The Tunnel to Summer, the Exit of Goodbyes (2022) - YURASUKA Encoded date : 2024-03-02 03:29:16 UTC Writing application : mkvmerge v82.0.31 ('I'm The President') 64-bit Writing library : libebml v1.4.5 + libmatroska v1.7.1 Attachments : [...] Video ID : 1 Format : HEVC Format/Info : High Efficiency Video Coding Format profile : Main 10@L4@High Codec ID : V_MPEGH/ISO/HEVC Duration : 1 h 22 min Bit rate : 3 835 kb/s Width : 1 920 pixels Height : 804 pixels Display aspect ratio : 2.39:1 Frame rate mode : Constant Frame rate : 23.976 (24000/1001) FPS Color space : YUV Chroma subsampling : 4:2:0 Bit depth : 10 bits Bits/(Pixel*Frame) : 0.104 Stream size : 2.21 GiB (60%) Title : YURASUKA 1080p x265 Writing library : x265 3.5:[Linux][GCC 11.2.0][64 bit] 10bit Encoding settings : cpuid=1176575 / frame-threads=5 / numa-pools=32 / wpp / no-pmode / no-pme / no-psnr / no-ssim / log-level=2 / input-csp=1 / input-res=1920x804 / interlace=0 / total-frames=0 / level-idc=0 / high-tier=1 / uhd-bd=0 / ref=6 / no-allow-non-conformance / no-repeat-headers / annexb / no-aud / no-hrd / info / hash=0 / no-temporal-layers / open-gop / min-keyint=1 / keyint=360 / gop-lookahead=0 / bframes=16 / b-adapt=2 / b-pyramid / bframe-bias=0 / rc-lookahead=72 / lookahead-slices=4 / scenecut=40 / hist-scenecut=0 / radl=0 / no-splice / no-intra-refresh / ctu=32 / min-cu-size=8 / rect / amp / max-tu-size=32 / tu-inter-depth=3 / tu-intra-depth=3 / limit-tu=4 / rdoq-level=2 / dynamic-rd=0.00 / no-ssim-rd / signhide / tskip / nr-intra=0 / nr-inter=0 / no-constrained-intra / strong-intra-smoothing / max-merge=5 / limit-refs=3 / limit-modes / me=3 / subme=7 / merange=57 / temporal-mvp / no-frame-dup / no-hme / weightp / weightb / analyze-src-pics / deblock=0:0 / no-sao / no-sao-non-deblock / rd=6 / selective-sao=0 / no-early-skip / rskip / no-fast-intra / no-tskip-fast / no-cu-lossless / b-intra / no-splitrd-skip / rdpenalty=0 / psy-rd=2.00 / psy-rdoq=2.00 / no-rd-refine / no-lossless / cbqpoffs=-2 / crqpoffs=-2 / rc=crf / crf=16.0 / qcomp=0.72 / qpstep=4 / stats-write=0 / stats-read=0 / vbv-maxrate=20000 / vbv-bufsize=40000 / vbv-init=0.9 / min-vbv-fullness=50.0 / max-vbv-fullness=80.0 / crf-max=0.0 / crf-min=0.0 / ipratio=1.40 / pbratio=1.30 / aq-mode=3 / aq-strength=0.85 / cutree / zone-count=0 / no-strict-cbr / qg-size=32 / no-rc-grain / qpmax=69 / qpmin=0 / no-const-vbv / sar=1 / overscan=0 / videoformat=5 / range=0 / colorprim=1 / transfer=1 / colormatrix=1 / chromaloc=0 / display-window=0 / cll=0,0 / min-luma=0 / max-luma=1023 / log2-max-poc-lsb=8 / vui-timing-info / vui-hrd-info / slices=1 / no-opt-qp-pps / no-opt-ref-list-length-pps / no-multi-pass-opt-rps / scenecut-bias=0.05 / hist-threshold=0.03 / no-opt-cu-delta-qp / no-aq-motion / no-hdr10 / no-hdr10-opt / no-dhdr10-opt / no-idr-recovery-sei / analysis-reuse-level=0 / analysis-save-reuse-level=0 / analysis-load-reuse-level=0 / scale-factor=0 / refine-intra=0 / refine-inter=0 / refine-mv=1 / refine-ctu-distortion=0 / no-limit-sao / ctu-info=0 / no-lowpass-dct / refine-analysis-type=0 / copy-pic=1 / max-ausize-factor=1.0 / no-dynamic-refine / no-single-sei / no-hevc-aq / no-svt / no-field / qp-adaptation-range=1.00 / scenecut-aware-qp=0conformance-window-offsets / right=0 / bottom=0 / decoder-max-rate=0 / no-vbv-live-multi-pass Language : Japanese Default : Yes Forced : No Color range : Limited Color primaries : BT.709 Transfer characteristics : BT.709 Matrix coefficients : BT.709 Audio #1 ID : 2 Format : FLAC Format/Info : Free Lossless Audio Codec Codec ID : A_FLAC Duration : 1 h 22 min Bit rate mode : Variable Bit rate : 1 337 kb/s Channel(s) : 6 channels Channel layout : L R C LFE Ls Rs Sampling rate : 48.0 kHz Frame rate : 10.417 FPS (4608 SPF) Bit depth : 16 bits Compression mode : Lossless Delay relative to video : 55 ms Stream size : 791 MiB (21%) Title : English FLAC 5.1 Writing library : Lavf60.16.100 Language : English Default : Yes Forced : No MD5 of the unencoded content : E1AD43AC85F30A04F52F9C74A396AC02 Audio #2 ID : 3 Format : FLAC Format/Info : Free Lossless Audio Codec Codec ID : A_FLAC Duration : 1 h 22 min Bit rate mode : Variable Bit rate : 1 096 kb/s Channel(s) : 6 channels Channel layout : L R C LFE Ls Rs Sampling rate : 48.0 kHz Frame rate : 10.417 FPS (4608 SPF) Bit depth : 16 bits Compression mode : Lossless Stream size : 648 MiB (17%) Title : Japanese FLAC 5.1 Writing library : Lavf60.16.100 Language : Japanese Default : Yes Forced : No MD5 of the unencoded content : 7FB1548BB567471EF4009B5D10E4BE67 Text #1 ID : 4 Format : ASS Title : Signs & Songs [EMBER] Language : English Default : Yes Forced : Yes Text #2 Format : ASS Title : Full Subtitles [GJM] Language : English Default : No Forced : No Text #3 Format : ASS Title : Full Subtitles [TakaNishi] Language : English Default : No Forced : No Text #4 Format : PGS Title : Signs & Songs (USBD) Language : English Default : No Forced : Yes Text #5 Format : PGS Title : Official Subtitles (USBD) Language : English Default : No Forced : No Text #6 Format : PGS Title : English Dialogue (USBD) Language : English Default : No Forced : No Menu 00:00:00.000 : Chapter 1 00:06:08.368 : Chapter 2 00:13:30.810 : Chapter 3 00:25:16.515 : Chapter 4 00:37:02.220 : Chapter 5 00:44:55.693 : Chapter 6 00:51:55.112 : Chapter 7 00:58:08.485 : Chapter 8 01:09:40.176 : Chapter 9 01:18:29.705 : Chapter 10 ``` Dead end for a sucker that’s a sucker like me. 私のようなカモの行き止まりです。

File list