[MagicStar] Konkatsu 1000 Knocks EP07 [WEBDL] [1080p] [AMZN] [JPN_SUB]

Category:
Date:
2024-03-01 11:47 UTC
Submitter:
Seeders:
1
Information:
Leechers:
2
File size:
2.4 GiB
Completed:
304
Info hash:
48d8ddca52766c4ca3151b7d9d06fd28f4c0ffc6
HD 1080p from Prime Video. Use CBR bitrate mode. Japanese subtitles added. Audio description added. ************** We are planning to upload all Prime Video Japan Dramas and Movies, we need your Support! ************** Support Us Ali (Zhifubao / QR code): https://i.ibb.co/FWV2ggm/1660626347125.png PayPalMe: https://www.paypal.com/paypalme/sakuragikenji ETH (ERC20): 0xea3286E176099E8C9aBaf25A0edf231374C04E89 USDT (BTC / OMNI): 1Lemw6fu5vG3NdvWGxDxsPX7T7yUb3rNzu ************** ![alt text](https://i.ibb.co/bJ0LLff/fa981efc11f349b9baa18f0fc8f1c2a73d2c1af63731d0adfb03c3ef289e5987.jpg) ![alt text](https://i.ibb.co/vBh3fTT/Konkatsu-1000-Knocks-EP07-1080p-AMZN-WEB-DL-DDP2-0-H-264-Magic-Star-mkv.jpg) ``` General Unique ID : 325842875678118987751919187652964278448 (0xF5230E1DE04A81D853B033E9A81860B0) Complete name : Konkatsu.1000.Knocks.EP07.1080p.AMZN.WEB-DL.DDP2.0.H.264-MagicStar.mkv Format : Matroska Format version : Version 4 File size : 2.43 GiB Duration : 44 min 51 s Overall bit rate mode : Constant Overall bit rate : 7 741 kb/s Frame rate : 29.970 FPS Encoded date : 2024-03-01 06:42:24 UTC Writing application : mkvmerge v50.0.0 ('Awakenings') 64-bit Writing library : libebml v1.4.0 + libmatroska v1.6.2 Cover : Yes Attachments : cover.jpg Video ID : 1 Format : AVC Format/Info : Advanced Video Codec Format profile : High@L4 Format settings : CABAC / 4 Ref Frames Format settings, CABAC : Yes Format settings, Reference fra : 4 frames Codec ID : V_MPEG4/ISO/AVC Duration : 44 min 51 s Bit rate mode : Constant Bit rate : 7 288 kb/s Nominal bit rate : 10 000 kb/s Width : 1 920 pixels Height : 1 080 pixels Display aspect ratio : 16:9 Frame rate mode : Constant Frame rate : 29.970 (29970/1000) FPS Original frame rate : 29.970 (30000/1001) FPS Color space : YUV Chroma subsampling : 4:2:0 Bit depth : 8 bits Scan type : Progressive Bits/(Pixel*Frame) : 0.117 Stream size : 2.28 GiB (94%) Default : Yes Forced : No Color range : Limited Color primaries : BT.709 Transfer characteristics : BT.709 Matrix coefficients : BT.709 Audio #1 ID : 2 Format : E-AC-3 Format/Info : Enhanced AC-3 Commercial name : Dolby Digital Plus Codec ID : A_EAC3 Duration : 44 min 51 s Bit rate mode : Constant Bit rate : 224 kb/s Channel(s) : 2 channels Channel layout : L R Sampling rate : 48.0 kHz Frame rate : 31.250 FPS (1536 SPF) Compression mode : Lossy Stream size : 71.9 MiB (3%) Title : 日本語 [オリジナル] Language : Japanese Service kind : Complete Main Default : Yes Forced : No Audio #2 ID : 3 Format : E-AC-3 Format/Info : Enhanced AC-3 Commercial name : Dolby Digital Plus Codec ID : A_EAC3 Duration : 44 min 51 s Bit rate mode : Constant Bit rate : 224 kb/s Channel(s) : 2 channels Channel layout : L R Sampling rate : 48.0 kHz Frame rate : 31.250 FPS (1536 SPF) Compression mode : Lossy Stream size : 71.9 MiB (3%) Title : 日本語 [解説放送音声] Language : Japanese Service kind : Complete Main Default : No Forced : No ```

File list