[MagicStar] Konkatsu 1000 Knocks EP07 [WEBDL] [1080p] [FOD] [JPN_SUB]

Category:
Date:
2024-03-01 11:44 UTC
Submitter:
Seeders:
4
Information:
Leechers:
1
File size:
1.9 GiB
Completed:
587
Info hash:
6b49a123c20ef286b48bcaf104571f098203abbe
HD 1080p from FOD. Japanese subtitles added. ![alt text](https://i.ibb.co/GWyGjvY/f0me-a.jpg) ![alt text](https://i.ibb.co/Rj4QLSb/Konkatsu-1000-Knocks-EP07-1080p-FOD-WEB-DL-AAC2-0-H-264-Magic-Star-mkv.jpg) ``` General Unique ID : 192576471757385880634573816067407320109 (0x90E0E11D5B5749637E33ADBB0CE1942D) Complete name : Konkatsu.1000.Knocks.EP07.1080p.FOD.WEB-DL.AAC2.0.H.264-MagicStar.mkv Format : Matroska Format version : Version 4 File size : 1.89 GiB Duration : 44 min 51 s Overall bit rate mode : Variable Overall bit rate : 6 018 kb/s Frame rate : 29.970 FPS Encoded date : 2024-03-01 03:12:27 UTC Writing application : mkvmerge v50.0.0 ('Awakenings') 64-bit Writing library : libebml v1.4.0 + libmatroska v1.6.2 Video ID : 1 Format : AVC Format/Info : Advanced Video Codec Format profile : High@L4.1 Format settings : CABAC / 2 Ref Frames Format settings, CABAC : Yes Format settings, Reference fra : 2 frames Codec ID : V_MPEG4/ISO/AVC Duration : 44 min 51 s Bit rate mode : Variable Bit rate : 5 824 kb/s Maximum bit rate : 15.0 Mb/s Width : 1 920 pixels Height : 1 080 pixels Display aspect ratio : 16:9 Frame rate mode : Constant Frame rate : 29.970 (29970/1000) FPS Original frame rate : 29.970 (30000/1001) FPS Color space : YUV Chroma subsampling : 4:2:0 Bit depth : 8 bits Scan type : Progressive Bits/(Pixel*Frame) : 0.094 Stream size : 1.82 GiB (97%) Default : Yes Forced : No Audio ID : 2 Format : AAC LC Format/Info : Advanced Audio Codec Low Complexity Codec ID : A_AAC-2 Duration : 44 min 51 s Bit rate : 192 kb/s Channel(s) : 2 channels Channel layout : L R Sampling rate : 48.0 kHz Frame rate : 46.875 FPS (1024 SPF) Compression mode : Lossy Stream size : 61.6 MiB (3%) Title : 日本語 [オリジナル] Language : Japanese Default : Yes Forced : No ```

File list