[MagicStar] Aibou Season22 EP18 [WEBDL] [1080p] [JPN_SUB]

Category:
Date:
2024-03-01 11:43 UTC
Submitter:
Seeders:
7
Information:
Leechers:
0
File size:
941.2 MiB
Completed:
1254
Info hash:
d87ff0a1f032c4a4b524aff71c16c26d5ccdc7c3
HD 1080p from TVer. Japanese subtitles added. ![alt text](https://i.ibb.co/7kY8TJp/25860dc4-d204-4b8e-9b7c-dfcd1f70b811.jpg) ![alt text](https://i.ibb.co/1KmTQkP/Magic-Star-Aibou-Season22-EP18-WEBDL-1080p-mkv.jpg) ``` General Unique ID : 3461519500666505740326406261444666900 (0x29AAA1681FD9219DD4D48ABB28F6614) Complete name : [MagicStar] Aibou Season22 EP18 [WEBDL] [1080p].mkv Format : Matroska Format version : Version 4 File size : 941 MiB Duration : 45 min 38 s Overall bit rate : 2 883 kb/s Frame rate : 29.970 FPS Encoded date : 2024-03-01 03:09:19 UTC Writing application : mkvmerge v50.0.0 ('Awakenings') 64-bit Writing library : libebml v1.4.0 + libmatroska v1.6.2 Video ID : 1 Format : AVC Format/Info : Advanced Video Codec Format profile : High@L4 Format settings : CABAC / 4 Ref Frames Format settings, CABAC : Yes Format settings, Reference fra : 4 frames Codec ID : V_MPEG4/ISO/AVC Duration : 45 min 38 s Bit rate : 2 689 kb/s Width : 1 920 pixels Height : 1 080 pixels Display aspect ratio : 16:9 Frame rate mode : Constant Frame rate : 29.970 (29970/1000) FPS Original frame rate : 29.970 (30000/1001) FPS Color space : YUV Chroma subsampling : 4:2:0 Bit depth : 8 bits Scan type : Progressive Bits/(Pixel*Frame) : 0.043 Stream size : 878 MiB (93%) Writing library : Zencoder Video Encoding System Default : Yes Forced : No Color range : Limited Matrix coefficients : BT.709 Audio ID : 2 Format : AAC LC Format/Info : Advanced Audio Codec Low Complexity Codec ID : A_AAC-2 Duration : 45 min 38 s Bit rate : 192 kb/s Channel(s) : 2 channels Channel layout : L R Sampling rate : 48.0 kHz Frame rate : 46.875 FPS (1024 SPF) Compression mode : Lossy Stream size : 62.6 MiB (7%) Title : 日本語 [オリジナル] Language : Japanese Default : Yes Forced : No ```

File list