[MagicStar] Otto wo Shakaiteki ni Massatsusuru Itsutsu no Houhou Season2 - Spin-Off - Episode.0 - EP04 [WEBDL] [1080p]

Category:
Date:
2024-03-01 11:32 UTC
Submitter:
Seeders:
3
Information:
Leechers:
0
File size:
83.4 MiB
Completed:
478
Info hash:
de3944e7363c26197e38244ca65bbdf55ede5918
HD 1080p from TVer. ![alt text](https://i.ibb.co/8YMxZDm/064111e2a63ec6c82f0a3545385f55db9708024a581fda425e7e0aa70858898d.jpg) ![alt text](https://i.ibb.co/nfzrqRm/Magic-Star-Otto-wo-Shakaiteki-ni-Massatsusuru-Itsutsu-no-Houhou-Season2-Spin-Off-Episode-0-EP04-WEBD.jpg) ``` General Unique ID : 262370219497435732809395995309758157990 (0xC562AA8DB14936DEFE5E2F67225F14A6) Complete name : [MagicStar] Otto wo Shakaiteki ni Massatsusuru Itsutsu no Houhou Season2 - Spin-Off - Episode.0 - EP04 [WEBDL] [1080p].mkv Format : Matroska Format version : Version 4 File size : 83.4 MiB Duration : 4 min 33 s Overall bit rate : 2 561 kb/s Frame rate : 29.970 FPS Encoded date : 2024-03-01 02:15:23 UTC Writing application : mkvmerge v50.0.0 ('Awakenings') 64-bit Writing library : libebml v1.4.0 + libmatroska v1.6.2 Video ID : 1 Format : AVC Format/Info : Advanced Video Codec Format profile : High@L4 Format settings : CABAC / 4 Ref Frames Format settings, CABAC : Yes Format settings, Reference fra : 4 frames Codec ID : V_MPEG4/ISO/AVC Duration : 4 min 33 s Bit rate : 2 370 kb/s Width : 1 920 pixels Height : 1 080 pixels Display aspect ratio : 16:9 Frame rate mode : Constant Frame rate : 29.970 (29970/1000) FPS Original frame rate : 29.970 (30000/1001) FPS Color space : YUV Chroma subsampling : 4:2:0 Bit depth : 8 bits Scan type : Progressive Bits/(Pixel*Frame) : 0.038 Stream size : 77.1 MiB (92%) Writing library : Zencoder Video Encoding System Default : Yes Forced : No Color range : Limited Color primaries : BT.709 Transfer characteristics : BT.709 Matrix coefficients : BT.709 Audio ID : 2 Format : AAC LC Format/Info : Advanced Audio Codec Low Complexity Codec ID : A_AAC-2 Duration : 4 min 33 s Bit rate : 192 kb/s Channel(s) : 2 channels Channel layout : L R Sampling rate : 48.0 kHz Frame rate : 46.875 FPS (1024 SPF) Compression mode : Lossy Stream size : 6.17 MiB (7%) Title : 日本語 [オリジナル] Language : Japanese Default : Yes Forced : No ```

File list