[MagicStar] Eye Love You EP06 [WEBDL] [1080p] [JPN_SUB] [Special Version]

Category:
Date:
2024-03-01 11:32 UTC
Submitter:
Seeders:
10
Information:
Leechers:
0
File size:
971.9 MiB
Completed:
869
Info hash:
b610fff259c311b08834336c0fff1e0601d642ab
HD 1080p from TVer. Japanese subtitles added. Special Version. ![alt text](https://i.ibb.co/GWgVFpD/24807.jpg) ![alt text](https://i.ibb.co/9c58d02/Magic-Star-Eye-Love-You-EP06-WEBDL-1080p-Special-Version-mkv.jpg) ``` General Unique ID : 89284528079101515471009249374950611598 (0x432B931A488B30E1A42E0131DE2F5A8E) Complete name : [MagicStar] Eye Love You EP06 [WEBDL] [1080p] [Special Version].mkv Format : Matroska Format version : Version 4 File size : 972 MiB Duration : 47 min 5 s Overall bit rate : 2 886 kb/s Frame rate : 29.970 FPS Encoded date : 2024-03-01 02:13:36 UTC Writing application : mkvmerge v50.0.0 ('Awakenings') 64-bit Writing library : libebml v1.4.0 + libmatroska v1.6.2 Video ID : 1 Format : AVC Format/Info : Advanced Video Codec Format profile : High@L4 Format settings : CABAC / 4 Ref Frames Format settings, CABAC : Yes Format settings, Reference fra : 4 frames Codec ID : V_MPEG4/ISO/AVC Duration : 47 min 5 s Bit rate : 2 692 kb/s Width : 1 920 pixels Height : 1 080 pixels Display aspect ratio : 16:9 Frame rate mode : Constant Frame rate : 29.970 (29970/1000) FPS Original frame rate : 29.970 (30000/1001) FPS Color space : YUV Chroma subsampling : 4:2:0 Bit depth : 8 bits Scan type : Progressive Bits/(Pixel*Frame) : 0.043 Stream size : 906 MiB (93%) Writing library : Zencoder Video Encoding System Default : Yes Forced : No Color range : Limited Color primaries : BT.709 Transfer characteristics : BT.709 Matrix coefficients : BT.709 Audio ID : 2 Format : AAC LC Format/Info : Advanced Audio Codec Low Complexity Codec ID : A_AAC-2 Duration : 47 min 5 s Bit rate : 192 kb/s Channel(s) : 2 channels Channel layout : L R Sampling rate : 48.0 kHz Frame rate : 46.875 FPS (1024 SPF) Compression mode : Lossy Stream size : 64.5 MiB (7%) Title : 日本語 [オリジナル] Language : Japanese Default : Yes Forced : No ```

File list