[MagicStar] Mars - Zero no Kakumei - EP06 [WEBDL] [1080p] [JPN_SUB]

Category:
Date:
2024-03-01 11:32 UTC
Submitter:
Seeders:
6
Information:
Leechers:
0
File size:
943.3 MiB
Completed:
667
Info hash:
6696021b6fb0c0d10dcb1fe5f22d38a2dcddbf31
HD 1080p from TVer. Japanese subtitles added. ![alt text](https://i.ibb.co/6N4mr0V/Mars-0-revolution-1.jpg) ![alt text](https://i.ibb.co/cXxLG5X/Magic-Star-Mars-Zero-no-Kakumei-EP06-WEBDL-1080p-mkv.jpg) ``` General Unique ID : 28224726239323994389920395583935867679 (0x153BE27173C988ED5AF44DB03889EB1F) Complete name : [MagicStar] Mars - Zero no Kakumei - EP06 [WEBDL] [1080p].mkv Format : Matroska Format version : Version 4 File size : 943 MiB Duration : 45 min 55 s Overall bit rate : 2 872 kb/s Frame rate : 29.970 FPS Encoded date : 2024-03-01 02:11:56 UTC Writing application : mkvmerge v50.0.0 ('Awakenings') 64-bit Writing library : libebml v1.4.0 + libmatroska v1.6.2 Video ID : 1 Format : AVC Format/Info : Advanced Video Codec Format profile : High@L4 Format settings : CABAC / 4 Ref Frames Format settings, CABAC : Yes Format settings, Reference fra : 4 frames Codec ID : V_MPEG4/ISO/AVC Duration : 45 min 55 s Bit rate : 2 678 kb/s Width : 1 920 pixels Height : 1 080 pixels Display aspect ratio : 16:9 Frame rate mode : Constant Frame rate : 29.970 (29970/1000) FPS Original frame rate : 29.970 (30000/1001) FPS Color space : YUV Chroma subsampling : 4:2:0 Bit depth : 8 bits Scan type : Progressive Bits/(Pixel*Frame) : 0.043 Stream size : 879 MiB (93%) Writing library : Zencoder Video Encoding System Default : Yes Forced : No Color range : Limited Matrix coefficients : BT.709 Audio ID : 2 Format : AAC LC Format/Info : Advanced Audio Codec Low Complexity Codec ID : A_AAC-2 Duration : 45 min 55 s Bit rate : 192 kb/s Channel(s) : 2 channels Channel layout : L R Sampling rate : 48.0 kHz Frame rate : 46.875 FPS (1024 SPF) Compression mode : Lossy Stream size : 63.0 MiB (7%) Title : 日本語 [オリジナル] Language : Japanese Default : Yes Forced : No ```

File list