[MagicStar] Ao Haru Ride Season2 EP04 [HDTV] [1080p] [WOWOW] [JPN_SUB]

Category:
Date:
2024-03-01 10:27 UTC
Submitter:
Seeders:
7
File size:
902.9 MiB
Completed:
678
Info hash:
760381c670c0226424efdc19c6454335cf068e55
HD 1080p from WOWOW Prime. WOWOW Original Series. Japanese subtitles added. ![alt text](https://i.ibb.co/stk1PK1/1337764f-6b56-4a03-b236-9038ab5fc93d.jpg) ![alt text](https://i.ibb.co/2F9VMGt/Ao-Haru-Ride-S02-EP04-1080p-WOWOW-HDTV-H264-AAC-Magic-Star-mkv.jpg) ``` General Unique ID : 173552511409366138227313065472651384031 (0x8290FF740F73CE7D9585785B86BF54DF) Complete name : Ao.Haru.Ride.S02EP04.1080p.WOWOW.HDTV.H264.AAC-MagicStar.mkv Format : Matroska Format version : Version 2 File size : 903 MiB Duration : 26 min 0 s Overall bit rate : 4 855 kb/s Frame rate : 29.970 FPS Encoded date : 2024-02-29 08:10:09 UTC Writing application : mkvmerge v8.5.2 ('Crosses') 32bit Writing library : libebml v1.3.3 + libmatroska v1.4.4 Video ID : 1 Format : AVC Format/Info : Advanced Video Codec Format profile : High@L4.1 Format settings : CABAC / 4 Ref Frames Format settings, CABAC : Yes Format settings, Reference fra : 4 frames Codec ID : V_MPEG4/ISO/AVC Duration : 26 min 0 s Bit rate : 4 660 kb/s Width : 1 920 pixels Height : 1 080 pixels Display aspect ratio : 16:9 Frame rate mode : Constant Frame rate : 29.970 (30000/1001) FPS Color space : YUV Chroma subsampling : 4:2:0 Bit depth : 8 bits Scan type : Progressive Bits/(Pixel*Frame) : 0.075 Stream size : 867 MiB (96%) Writing library : x264 core 148 r2638 7599210 Encoding settings : cabac=1 / ref=3 / deblock=1:0:0 / analyse=0x3:0x113 / me=umh / subme=8 / psy=1 / psy_rd=1.00:0.00 / mixed_ref=0 / me_range=16 / chroma_me=1 / trellis=2 / 8x8dct=1 / cqm=0 / deadzone=21,11 / fast_pskip=1 / chroma_qp_offset=-2 / threads=24 / lookahead_threads=4 / sliced_threads=0 / nr=0 / decimate=1 / interlaced=0 / bluray_compat=0 / constrained_intra=0 / bframes=3 / b_pyramid=2 / b_adapt=2 / b_bias=0 / direct=3 / weightb=1 / open_gop=0 / weightp=2 / keyint=300 / keyint_min=29 / scenecut=40 / intra_refresh=0 / rc_lookahead=40 / rc=crf / mbtree=1 / crf=18.0 / qcomp=0.60 / qpmin=0 / qpmax=69 / qpstep=4 / ip_ratio=1.40 / aq=1:1.00 Default : Yes Forced : No Audio ID : 2 Format : AAC LC Format/Info : Advanced Audio Codec Low Complexity Codec ID : A_AAC-2 Duration : 26 min 0 s Bit rate : 192 kb/s Channel(s) : 2 channels Channel layout : L R Sampling rate : 48.0 kHz Frame rate : 46.875 FPS (1024 SPF) Compression mode : Lossy Stream size : 35.7 MiB (4%) Language : Japanese Default : Yes Forced : No ```

File list