Sakura.Trick.S01.1080p.BluRay.10-Bit.FLAC2.0.x265-YURASUKA

Category:
Date:
2024-02-24 04:49 UTC
Submitter:
Seeders:
12
Information:
Leechers:
1
File size:
7.6 GiB
Completed:
238
Info hash:
b5b0d143262d99f5f41fd82f5330dd6b85d7e07d
Sakura Trick Season 1 (2014) A/V Source: U2娘@Share (JPBD) Subtitles Source 1: [smol@Nyaa](https://nyaa.si/view/1657673) [Tsundere] Subtitles Source 2: [Doki@Nyaa](https://nyaa.si/view/953929) [Encode Comparison](https://slow.pics/c/obvT3wiy) ``` Complete name : Sakura.Trick.S01E06.1080p.BluRay.10-Bit.FLAC2.0.x265-YURASUKA.mkv Format : Matroska Format version : Version 4 File size : 622 MiB Duration : 24 min 11 s Overall bit rate mode : Variable Overall bit rate : 3 593 kb/s Frame rate : 23.976 FPS Movie name : Sakura Trick - S01E06 - YURASUKA Encoded date : 2024-02-24 02:54:06 UTC Writing application : mkvmerge v82.0.31 ('I'm The President') 64-bit Writing library : libebml v1.4.5 + libmatroska v1.7.1 Attachments : agrounded-book.ttf / Average-Regular.ttf / BPreplayBold.otf / Brush Strokes.ttf / Brushcut-Regular.ttf / Budhand.ttf / chinacat.ttf / Comfortaa Regular.ttf / coolvetica rg.ttf / CWMAGIK.TTF / DK Crayon Crumble.ttf / handsean.ttf / HANDWRITTEN_CRYSTAL_V2.TTF / HGPKakuPopTai-CP.ttf / Humana_Sans_Md_ITC_TT_Medium.ttf / JANIHB.TTF / love_romance_ot.otf / LT.ttf / LT_3italic.ttf / Mercurius-Medium.otf / Milibus Sb.ttf / MyriadPro-Regular.otf / REVOLUTION.ttf / RotisSemiSansStd-Bold.otf / SEEIS.TTF / Station.ttf / times.ttf / TT0990M.TTF / arial.ttf / Arista2.0.ttf / ARNORG.TTF / Artois.ttf / avgardneclipse.ttf / BALONEY.TTF / Bank_Gothic_Light_BT.ttf / BAUHS93.TTF / bradley hand itc.ttf / BRITANIC.TTF / buxtonsketch.ttf / calibri.ttf / Cheboyga.ttf / chinrg.ttf / Comixheavy.ttf / Copyright Violations.ttf / DaxlinePro-Bold.otf / DocumentaDtlBold.otf / duprrg.ttf / ERASBD.TTF / Faraco Hand.ttf / Felt.ttf / FlatBrush.ttf / frabk.ttf / HTOWERT.TTF / kaiu.ttf / KGTenThousandReasons.ttf / vesta-bold.otf Video ID : 1 Format : HEVC Format/Info : High Efficiency Video Coding Format profile : Main 10@L5@High Codec ID : V_MPEGH/ISO/HEVC Duration : 24 min 10 s Bit rate : 2 873 kb/s Width : 1 920 pixels Height : 1 080 pixels Display aspect ratio : 16:9 Frame rate mode : Constant Frame rate : 23.976 (24000/1001) FPS Color space : YUV Chroma subsampling : 4:2:0 Bit depth : 10 bits Bits/(Pixel*Frame) : 0.058 Stream size : 497 MiB (80%) Title : YURASUKA 1080p x265 Writing library : x265 3.5:[Linux][GCC 11.2.0][64 bit] 10bit Encoding settings : cpuid=1176575 / frame-threads=5 / numa-pools=32 / wpp / no-pmode / no-pme / no-psnr / no-ssim / log-level=2 / input-csp=1 / input-res=1920x1080 / interlace=0 / total-frames=0 / level-idc=0 / high-tier=1 / uhd-bd=0 / ref=6 / no-allow-non-conformance / no-repeat-headers / annexb / no-aud / no-hrd / info / hash=0 / no-temporal-layers / open-gop / min-keyint=1 / keyint=360 / gop-lookahead=0 / bframes=16 / b-adapt=2 / b-pyramid / bframe-bias=0 / rc-lookahead=72 / lookahead-slices=4 / scenecut=40 / hist-scenecut=0 / radl=0 / no-splice / no-intra-refresh / ctu=32 / min-cu-size=8 / rect / amp / max-tu-size=32 / tu-inter-depth=3 / tu-intra-depth=3 / limit-tu=4 / rdoq-level=2 / dynamic-rd=0.00 / no-ssim-rd / signhide / tskip / nr-intra=0 / nr-inter=0 / no-constrained-intra / strong-intra-smoothing / max-merge=5 / limit-refs=3 / limit-modes / me=3 / subme=7 / merange=57 / temporal-mvp / no-frame-dup / no-hme / weightp / weightb / analyze-src-pics / deblock=0:0 / no-sao / no-sao-non-deblock / rd=6 / selective-sao=0 / no-early-skip / rskip / no-fast-intra / no-tskip-fast / no-cu-lossless / b-intra / no-splitrd-skip / rdpenalty=0 / psy-rd=2.00 / psy-rdoq=2.00 / no-rd-refine / no-lossless / cbqpoffs=-2 / crqpoffs=-2 / rc=crf / crf=16.0 / qcomp=0.72 / qpstep=4 / stats-write=0 / stats-read=0 / vbv-maxrate=20000 / vbv-bufsize=40000 / vbv-init=0.9 / min-vbv-fullness=50.0 / max-vbv-fullness=80.0 / crf-max=0.0 / crf-min=0.0 / ipratio=1.40 / pbratio=1.30 / aq-mode=3 / aq-strength=0.85 / cutree / zone-count=0 / no-strict-cbr / qg-size=32 / no-rc-grain / qpmax=69 / qpmin=0 / no-const-vbv / sar=1 / overscan=0 / videoformat=5 / range=0 / colorprim=1 / transfer=1 / colormatrix=1 / chromaloc=0 / display-window=0 / cll=0,0 / min-luma=0 / max-luma=1023 / log2-max-poc-lsb=8 / vui-timing-info / vui-hrd-info / slices=1 / no-opt-qp-pps / no-opt-ref-list-length-pps / no-multi-pass-opt-rps / scenecut-bias=0.05 / hist-threshold=0.03 / no-opt-cu-delta-qp / no-aq-motion / no-hdr10 / no-hdr10-opt / no-dhdr10-opt / no-idr-recovery-sei / analysis-reuse-level=0 / analysis-save-reuse-level=0 / analysis-load-reuse-level=0 / scale-factor=0 / refine-intra=0 / refine-inter=0 / refine-mv=1 / refine-ctu-distortion=0 / no-limit-sao / ctu-info=0 / no-lowpass-dct / refine-analysis-type=0 / copy-pic=1 / max-ausize-factor=1.0 / no-dynamic-refine / no-single-sei / no-hevc-aq / no-svt / no-field / qp-adaptation-range=1.00 / scenecut-aware-qp=0conformance-window-offsets / right=0 / bottom=0 / decoder-max-rate=0 / no-vbv-live-multi-pass Language : Japanese Default : Yes Forced : No Color range : Limited Color primaries : BT.709 Transfer characteristics : BT.709 Matrix coefficients : BT.709 Audio ID : 2 Format : FLAC Format/Info : Free Lossless Audio Codec Codec ID : A_FLAC Duration : 24 min 10 s Bit rate mode : Variable Bit rate : 624 kb/s Channel(s) : 2 channels Channel layout : L R Sampling rate : 48.0 kHz Frame rate : 10.417 FPS (4608 SPF) Bit depth : 16 bits Compression mode : Lossless Stream size : 108 MiB (17%) Title : Japanese FLAC 2.0 Writing library : Lavf60.16.100 Language : Japanese Default : Yes Forced : No MD5 of the unencoded content : 1F3EBDC53DC8ACC9EB2FCCADF766EEE5 Text #1 ID : 3 Format : ASS Codec ID : S_TEXT/ASS Codec ID/Info : Advanced Sub Station Alpha Duration : 24 min 9 s Bit rate : 13.2 kb/s Frame rate : 6.573 FPS Count of elements : 9528 Compression mode : Lossless Stream size : 2.28 MiB (0%) Title : Full Subtitles [Tsundere] Language : English Default : Yes Forced : No Text #2 ID : 4 Format : ASS Codec ID : S_TEXT/ASS Codec ID/Info : Advanced Sub Station Alpha Duration : 24 min 11 s Bit rate : 1 425 b/s Frame rate : 1.318 FPS Count of elements : 1912 Compression mode : Lossless Stream size : 253 KiB (0%) Title : Full Subtitles [Doki] Language : English Default : No Forced : No Menu 00:00:51.051 : ja:OP 00:01:29.840 : ja:Part A 00:11:41.826 : ja:Part B 00:22:09.787 : ja:ED 00:23:39.793 : ja:Preview ``` Dead end for a sucker that’s a sucker like me. 私のようなカモの行き止まりです。

File list

  • Sakura.Trick.S01.1080p.BluRay.10-Bit.FLAC2.0.x265-YURASUKA
    • Sakura.Trick.S01E01.1080p.BluRay.10-Bit.FLAC2.0.x265-YURASUKA.mkv (665.2 MiB)
    • Sakura.Trick.S01E02.1080p.BluRay.10-Bit.FLAC2.0.x265-YURASUKA.mkv (580.1 MiB)
    • Sakura.Trick.S01E03.1080p.BluRay.10-Bit.FLAC2.0.x265-YURASUKA.mkv (603.2 MiB)
    • Sakura.Trick.S01E04.1080p.BluRay.10-Bit.FLAC2.0.x265-YURASUKA.mkv (696.8 MiB)
    • Sakura.Trick.S01E05.1080p.BluRay.10-Bit.FLAC2.0.x265-YURASUKA.mkv (644.9 MiB)
    • Sakura.Trick.S01E06.1080p.BluRay.10-Bit.FLAC2.0.x265-YURASUKA.mkv (621.8 MiB)
    • Sakura.Trick.S01E07.1080p.BluRay.10-Bit.FLAC2.0.x265-YURASUKA.mkv (581.9 MiB)
    • Sakura.Trick.S01E08.1080p.BluRay.10-Bit.FLAC2.0.x265-YURASUKA.mkv (807.5 MiB)
    • Sakura.Trick.S01E09.1080p.BluRay.10-Bit.FLAC2.0.x265-YURASUKA.mkv (629.4 MiB)
    • Sakura.Trick.S01E10.1080p.BluRay.10-Bit.FLAC2.0.x265-YURASUKA.mkv (629.4 MiB)
    • Sakura.Trick.S01E11.1080p.BluRay.10-Bit.FLAC2.0.x265-YURASUKA.mkv (592.9 MiB)
    • Sakura.Trick.S01E12.1080p.BluRay.10-Bit.FLAC2.0.x265-YURASUKA.mkv (714.8 MiB)