[neoDESU] Level 1 Demon Lord and One Room Hero [Season 1] [BD 1080p x265 HEVC OPUS] Lv1 Maou to One Room Yuusha

Category:
Date:
2024-02-15 19:19 UTC
Submitter:
Seeders:
29
Information:
Leechers:
2
File size:
2.7 GiB
Completed:
1112
Info hash:
d36c713aaf74aef1b836f5dd5ef33717b0d97a3e
![](https://i.lensdump.com/i/6BKULK.png) *Come hang out in **[Discord](https://discord.gg/47Q7FdB54e)*** #### **[Level 1 Demon Lord and One Room Hero [Season 1]](https://myanimelist.net/anime/51458/Lv1_Maou_to_One_Room_Yuusha)** --- **Notes:** . Restyled script and changed fonts . Edited dialogue overlaps . Touched up signs . Created styled OP & ED . Created chapters --- **Synopsis** After the climactic battle to decide the fate of humanity, the hero Max, alongside his party, emerges victorious against the formidable Demon Lord. As he draws his last breath, the defeated Maou vows to return more powerful than ever to take his revenge. Ten years later, although Maou has resurrected, the process is incomplete, resulting in him taking on the form of a child. Nevertheless, not wanting to waste another second, Maou pays his nemesis a visit—but the hero who once gallantly protected humankind from the demon's clutches is now a pitiful slob bearing no resemblance to a man of his former caliber. Despite his disappointment, Maou moves in with Max in hope of building him back up into a worthy adversary. But as the demon learns more about the events that transpired in the decade of his absence, he realizes that there is a story behind Max's downfall that he knows nothing of. ![](https://i.imgur.com/3McKDzb.png) --- **Source** 🗃️ Video and JPN Audio (JPN BDMV): **[[Lupin the Nerd]](https://nyaa.si/view/1736100)** 🗃️ Subtitles: **[[SubsPlease]](https://nyaa.si/view/1689125)** 💬 *Subtitles Info: [SubsPlease] Base [Me] Edits, see notes* *Thank you all for making this possible <3* --- **Media Info** ``` General Unique ID : 293801494068607910591959821444220261697 (0xDD081C090F59D1906CE76FE152291541) Complete name : Level 1 Demon Lord and One Room Hero - S01E01.mkv Format : Matroska Format version : Version 4 File size : 266 MiB Duration : 23 min 42 s Overall bit rate : 1 571 kb/s Encoded date : UTC 2024-02-15 18:48:58 Writing application : mkvmerge v72.0.0 ('Minuano (Six-eight)') 64-bit Writing library : libebml v1.4.4 + libmatroska v1.7.1 / Lavf60.3.100 Attachments : CRONOSPRO-BOLD.OTF / CRONOSPRO-BOLDIT.OTF / Nexa Bold.otf / Roboto-Medium.ttf Video ID : 1 Format : HEVC Format/Info : High Efficiency Video Coding Format profile : Main 10@L4@High Codec ID : V_MPEGH/ISO/HEVC Duration : 23 min 42 s Bit rate : 1 438 kb/s Width : 1 920 pixels Height : 1 080 pixels Display aspect ratio : 16:9 Frame rate mode : Constant Frame rate : 23.976 (24000/1001) FPS Color space : YUV Chroma subsampling : 4:2:0 Bit depth : 10 bits Bits/(Pixel*Frame) : 0.029 Stream size : 244 MiB (92%) Writing library : x265 3.5+37+12-4e46995bc:[Windows][MSVC 1931][64 bit] 10bit Encoding settings : cpuid=1111039 / frame-threads=5 / numa-pools=32 / wpp / no-pmode / no-pme / no-psnr / no-ssim / log-level=2 / input-csp=1 / input-res=1920x1080 / interlace=0 / total-frames=202 / level-idc=40 / high-tier=1 / uhd-bd=0 / ref=5 / no-allow-non-conformance / no-repeat-headers / annexb / no-aud / no-eob / no-eos / no-hrd / info / hash=0 / no-temporal-layers / open-gop / min-keyint=23 / keyint=250 / gop-lookahead=0 / bframes=16 / b-adapt=2 / b-pyramid / bframe-bias=0 / rc-lookahead=120 / lookahead-slices=4 / scenecut=40 / no-hist-scenecut / radl=0 / no-splice / no-intra-refresh / ctu=64 / min-cu-size=8 / rect / no-amp / max-tu-size=32 / tu-inter-depth=1 / tu-intra-depth=1 / limit-tu=0 / rdoq-level=1 / dynamic-rd=0.00 / no-ssim-rd / signhide / no-tskip / nr-intra=0 / nr-inter=0 / no-constrained-intra / no-strong-intra-smoothing / max-merge=3 / limit-refs=3 / limit-modes / me=3 / subme=3 / merange=57 / temporal-mvp / no-frame-dup / no-hme / weightp / no-weightb / no-analyze-src-pics / deblock=-1:-1 / no-sao / no-sao-non-deblock / rd=4 / selective-sao=0 / no-early-skip / rskip / no-fast-intra / no-tskip-fast / no-cu-lossless / no-b-intra / no-splitrd-skip / rdpenalty=0 / psy-rd=1.50 / psy-rdoq=2.00 / no-rd-refine / no-lossless / cbqpoffs=0 / crqpoffs=0 / rc=crf / crf=22.0 / qcomp=0.60 / qpstep=4 / stats-write=0 / stats-read=0 / vbv-maxrate=30000 / vbv-bufsize=30000 / vbv-init=0.9 / min-vbv-fullness=50.0 / max-vbv-fullness=80.0 / crf-max=0.0 / crf-min=0.0 / ipratio=1.40 / pbratio=1.30 / aq-mode=3 / aq-strength=0.80 / aq-bias-strength=1.00 / cutree / zone-count=0 / no-strict-cbr / qg-size=32 / no-rc-grain / qpmax=69 / qpmin=0 / no-const-vbv / sar=0 / overscan=0 / videoformat=5 / range=0 / colorprim=2 / transfer=2 / colormatrix=2 / chromaloc=0 / display-window=0 / cll=0,0 / min-luma=0 / max-luma=1023 / log2-max-poc-lsb=8 / vui-timing-info / vui-hrd-info / slices=1 / no-opt-qp-pps / no-opt-ref-list-length-pps / no-multi-pass-opt-rps / scenecut-bias=0.05 / hist-threshold=0.03 / no-opt-cu-delta-qp / no-aq-motion / no-hdr10 / no-hdr10-opt / no-dhdr10-opt / no-idr-recovery-sei / analysis-reuse-level=0 / analysis-save-reuse-level=0 / analysis-load-reuse-level=0 / scale-factor=0 / refine-intra=0 / refine-inter=0 / refine-mv=1 / refine-ctu-distortion=0 / no-limit-sao / ctu-info=0 / no-lowpass-dct / refine-analysis-type=0 / copy-pic=1 / max-ausize-factor=1.0 / no-dynamic-refine / no-single-sei / no-hevc-aq / no-svt / no-field / qp-adaptation-range=1.00 / scenecut-aware-qp=0conformance-window-offsets / right=0 / bottom=0 / decoder-max-rate=0 / no-vbv-live-multi-pass Default : Yes Forced : No Audio ID : 2 Format : Opus Codec ID : A_OPUS Duration : 23 min 42 s Bit rate : 123 kb/s Channel(s) : 2 channels Channel layout : L R Sampling rate : 48.0 kHz Frame rate : 50.000 FPS (960 SPF) Bit depth : 16 bits Compression mode : Lossy Stream size : 20.8 MiB (8%) Title : Japanese Writing library : Lavc60.3.100 libopus Language : Japanese Default : Yes Forced : No Text ID : 3 Format : ASS Codec ID : S_TEXT/ASS Codec ID/Info : Advanced Sub Station Alpha Duration : 22 min 33 s Bit rate : 3 579 b/s Frame rate : 3.053 FPS Count of elements : 4133 Compression mode : Lossless Stream size : 591 KiB (0%) Title : Dialogue Language : English Default : Yes Forced : No Menu 00:00:00.000 : :Intro 00:08:31.950 : :OP 00:10:02.000 : :Episode 00:22:16.270 : :ED 00:23:17.170 : :Outro ```

File list

  • [neoDESU] Level 1 Demon Lord and One Room Hero [Season 1] [BD 1080p x265 HEVC OPUS]
    • Level 1 Demon Lord and One Room Hero - S01E01.mkv (266.3 MiB)
    • Level 1 Demon Lord and One Room Hero - S01E02.mkv (197.6 MiB)
    • Level 1 Demon Lord and One Room Hero - S01E03.mkv (203.2 MiB)
    • Level 1 Demon Lord and One Room Hero - S01E04.mkv (168.2 MiB)
    • Level 1 Demon Lord and One Room Hero - S01E05.mkv (209.0 MiB)
    • Level 1 Demon Lord and One Room Hero - S01E06.mkv (256.9 MiB)
    • Level 1 Demon Lord and One Room Hero - S01E07.mkv (209.2 MiB)
    • Level 1 Demon Lord and One Room Hero - S01E08.mkv (177.2 MiB)
    • Level 1 Demon Lord and One Room Hero - S01E09.mkv (223.2 MiB)
    • Level 1 Demon Lord and One Room Hero - S01E10.mkv (283.6 MiB)
    • Level 1 Demon Lord and One Room Hero - S01E11.mkv (357.3 MiB)
    • Level 1 Demon Lord and One Room Hero - S01E12.mkv (217.5 MiB)