[neoDESU] Campfire Cooking in Another World with My Absurd Skill [Season 1] [BD 1080p x265 HEVC OPUS AAC] [Dual Audio] Tondemo Skill de Isekai Hourou Meshi

Category:
Date:
2024-02-13 16:54 UTC
Submitter:
Seeders:
22
Information:
Leechers:
3
File size:
3.2 GiB
Completed:
1594
Info hash:
6128551f9de0f12c2bee9a8f4981317123f5435d
![](https://i.lensdump.com/i/6BKULK.png) *Come hang out in **[Discord](https://discord.gg/47Q7FdB54e)*** #### **[Campfire Cooking in Another World with My Absurd Skill [Season 1]](https://myanimelist.net/anime/53446/Tondemo_Skill_de_Isekai_Hourou_Meshi)** ▶️ **[Trailer](https://www.youtube.com/watch?v=JaxjIDezSBQ)** --- **Notes:** *Changes to previous upload: Added English audio and Signs&Songs subtitles* . Resampled script . Restyled script and changed fonts . Created styled OP & ED . Created chapters --- **Synopsis** Salaryman Tsuyoshi Mukouda is accidentally summoned as a hero to the Kingdom of Reijseger in another world to help defend against their enemies. Wary of the royal family's true intentions, Mukouda is able to talk his way out of the situation due to his non-combat skill, "Online Supermarket," which is deemed useless. However, this power proves to be anything but useless. With this ability, Mukouda is able to cheaply purchase food products and utensils from Japan—most of which are considered luxuries in this world. As Mukouda cooks up a storm using his ability, he catches the eye of the fearsome mythical wolf Fel. The legendary beast swiftly negotiates a contract to become Mukouda's familiar, unable to resist the delicious dishes. With Fel by his side, Mukouda travels the world, earning his keep as an adventurer and merchant all the while enjoying delectable meals. ![](https://a.l3n.co/i/sNsjmx.gif) --- **Language Options** I included two simple scripts that you can apply to these files to do the following (Windows only): 1. Make [Single Audio] Japanese: Throws out *English audio* and *Signs&Songs subtitles* tracks 2. Make [Single Audio] English: Throws out *Japanese audio* and *Dialogue subtitles* tracks To apply these put all the video files into the *Language Options* folder and run the .bat file. *Don't combine them and only use them once together with the base files.* --- **Source** 🗃️ Video and JPN Audio (JPN BDMV): **[mengq649]** 🗃️ ENG Audio (WEB): **[[Yameii]](https://nyaa.si/view/1777569)** 🗃️ Subtitles: **[[SubsPlease]](https://nyaa.si/view/1623090)** 💬 *Subtitles Info: [SubsPlease] Base [Me] Edits, see notes* *Thank you all for making this possible <3* --- **Media Info** ``` General Unique ID : 90759938720048166654680932311132941571 (0x4447BA76A9FCB27185C6400776622D03) Complete name : Campfire Cooking in Another World with My Absurd Skill - S01E01.mkv Format : Matroska Format version : Version 4 File size : 239 MiB Duration : 23 min 55 s Overall bit rate : 1 397 kb/s Encoded date : UTC 2024-02-13 16:47:10 Writing application : mkvmerge v72.0.0 ('Minuano (Six-eight)') 64-bit Writing library : libebml v1.4.4 + libmatroska v1.7.1 Attachments : LinBiolinum_RB.ttf / CRONOSPRO-BOLD.OTF / CRONOSPRO-BOLDIT.OTF / Figure Things.otf / MADE Tommy Soft Regular PERSONAL USE.otf / Roboto-Medium.ttf / Roboto-MediumItalic.ttf / arial.ttf / arialbd.ttf / comic.ttf / comicbd.ttf / times.ttf / timesbd.ttf / trebuc.ttf / trebucbd.ttf / verdana.ttf / verdanab.ttf / CONSOLA.TTF / CONSOLAB.TTF Video ID : 1 Format : HEVC Format/Info : High Efficiency Video Coding Format profile : Main 10@L4@High Codec ID : V_MPEGH/ISO/HEVC Duration : 23 min 55 s Bit rate : 1 095 kb/s Width : 1 920 pixels Height : 1 080 pixels Display aspect ratio : 16:9 Frame rate mode : Constant Frame rate : 23.976 (24000/1001) FPS Color space : YUV Chroma subsampling : 4:2:0 Bit depth : 10 bits Bits/(Pixel*Frame) : 0.022 Stream size : 188 MiB (78%) Writing library : x265 3.5+37+12-4e46995bc:[Windows][MSVC 1931][64 bit] 10bit Default : Yes Forced : No Audio #1 ID : 2 Format : AAC LC Format/Info : Advanced Audio Codec Low Complexity Codec ID : A_AAC-2 Duration : 23 min 55 s Bit rate : 128 kb/s Channel(s) : 2 channels Channel layout : L R Sampling rate : 44.1 kHz Frame rate : 43.066 FPS (1024 SPF) Compression mode : Lossy Stream size : 21.9 MiB (9%) Title : English Language : English Default : Yes Forced : No Audio #2 ID : 3 Format : Opus Codec ID : A_OPUS Duration : 23 min 55 s Bit rate : 128 kb/s Channel(s) : 2 channels Channel layout : L R Sampling rate : 48.0 kHz Frame rate : 50.000 FPS (960 SPF) Bit depth : 32 bits Compression mode : Lossy Stream size : 21.9 MiB (9%) Title : Japanese Language : Japanese Default : No Forced : No Text #1 ID : 4 Format : ASS Codec ID : S_TEXT/ASS Codec ID/Info : Advanced Sub Station Alpha Duration : 23 min 36 s Bit rate : 37 b/s Frame rate : 0.040 FPS Count of elements : 57 Compression mode : Lossless Stream size : 6.50 KiB (0%) Title : Signs & Songs Language : English Default : No Forced : Yes Text #2 ID : 5 Format : ASS Codec ID : S_TEXT/ASS Codec ID/Info : Advanced Sub Station Alpha Duration : 23 min 39 s Bit rate : 187 b/s Frame rate : 0.309 FPS Count of elements : 439 Compression mode : Lossless Stream size : 32.5 KiB (0%) Title : Dialogue Language : English Default : Yes Forced : No Menu 00:00:00.000 : :Intro 00:00:23.000 : :Episode 00:23:45.030 : :Preview ```

File list

  • [neoDESU] Campfire Cooking in Another World with My Absurd Skill [Season 1] [BD 1080p x265 HEVC OPUS AAC] [Dual Audio]
    • Language Options
      • 1. Make [Single Audio] English.bat (254 Bytes)
      • 2. Make [Single Audio] Japanese.bat (254 Bytes)
      • mkvmerge.exe (9.6 MiB)
      • readme.txt (511 Bytes)
    • Campfire Cooking in Another World with My Absurd Skill - S01E01.mkv (239.2 MiB)
    • Campfire Cooking in Another World with My Absurd Skill - S01E02.mkv (247.7 MiB)
    • Campfire Cooking in Another World with My Absurd Skill - S01E03.mkv (291.1 MiB)
    • Campfire Cooking in Another World with My Absurd Skill - S01E04.mkv (301.3 MiB)
    • Campfire Cooking in Another World with My Absurd Skill - S01E05.mkv (281.2 MiB)
    • Campfire Cooking in Another World with My Absurd Skill - S01E06.mkv (281.6 MiB)
    • Campfire Cooking in Another World with My Absurd Skill - S01E07.mkv (326.8 MiB)
    • Campfire Cooking in Another World with My Absurd Skill - S01E08.mkv (254.2 MiB)
    • Campfire Cooking in Another World with My Absurd Skill - S01E09.mkv (238.9 MiB)
    • Campfire Cooking in Another World with My Absurd Skill - S01E10.mkv (260.3 MiB)
    • Campfire Cooking in Another World with My Absurd Skill - S01E11.mkv (274.6 MiB)
    • Campfire Cooking in Another World with My Absurd Skill - S01E12.mkv (262.3 MiB)
just what I was waiting for, thanks 👍 Any chance you can do Spy x Family S2 ? Judas has a version but it has no chapter markers, so that's a no go. I Shall Survive Using Potions! also doesn't have a proper dual audio encode yet.

neoborn (uploader)

User
**@JoeGP** Spy x Family season 2 has no bluerays released/shared yet. The threshold for my web-version is quiet a way out. I shall Survive Using Potions! is not on my project list. There's too many samey isekai for me to do something for so I kinda have to be picky there these days.
All my thanks are belong to neo.

len

User
Nice, thanks!
Thank you so much! Nice to have a English dub version of the anime!