[neoDESU] Lovely Complex [Season 1] [BD 1440x1080p x265 HEVC OPUS] [Dual Audio] Lovely★Complex

Category:
Date:
2024-02-10 20:31 UTC
Submitter:
Seeders:
36
Information:
Leechers:
2
File size:
5.2 GiB
Completed:
1281
Info hash:
548893cb35c1ca2937a53d4d69656e0d5fefc938
![](https://i.lensdump.com/i/6BKULK.png) *Come hang out in **[Discord](https://discord.gg/47Q7FdB54e)*** #### **[Lovely Complex [Season 1]](https://myanimelist.net/anime/2034/Lovely%E2%98%85Complex)** ▶️ **[Trailer](https://www.youtube.com/watch?v=6rieUZzLQy8)** --- **Notes:** . Cut black bars . Restyled script and changed fonts . Remade styled OP & ED (source had hardsubbed OP & ED unfortunately) . Applied TPP & edited dialogue overlap timings . Touched up a couple signs here and there . Created chapters --- **Synopsis** Love is unusual for Risa Koizumi and Atsushi Ootani, who are both striving to find their ideal partner in high school—172 cm tall Koizumi is much taller than the average girl, and Ootani is much shorter than the average guy at 156 cm. To add to their plights, their crushes fall in love with each other, leaving Koizumi and Ootani comically flustered and heartbroken. To make matters worse, they're even labeled as a comedy duo by their homeroom teacher due to their personalities and the stark difference in their heights, and their classmates even think of their arguments as sketches. Lovely★Complex follows Koizumi and Ootani as they encourage each other in finding love and become close friends. Apart from their ridiculous antics, they soon find out an unexpected similarity in their music and fashion tastes. Maybe they possess a chemistry yet unknown, but could love ever bloom between the mismatched pair? ![](https://c.l3n.co/i/p8Q7VA.png) --- **Language Options** I included two simple scripts that you can apply to these files to do the following (Windows only): 1. Make [Single Audio] Japanese: Throws out *English audio* and *Signs&Songs subtitles* tracks 2. Make [Single Audio] English: Throws out *Japanese audio* and *Dialogue subtitles* tracks To apply these put all the video files into the *Language Options* folder and run the .bat file. *Don't combine them and only use them once together with the base files.* --- **Source** 🗃️ Video and Audio (US BDMV): **[[Mr_Kimiko]](https://nyaa.si/view/1775799)** 🗃️ Subtitles: **[[KiteSeekers-Kira]](https://nyaa.si/view/1117114)** 💬 *Subtitles Info: [KiteSeekers-Kira] Base [Me] Edits, see notes* *Thank you all for making this possible <3* --- **Media Info** ``` General Unique ID : 70455504108893715094757794800884318161 (0x35013C8BFC7F0FBF66314CE7FBF0FFD1) Complete name : Lovely Complex - S01E01.mkv Format : Matroska Format version : Version 4 File size : 247 MiB Duration : 23 min 41 s Overall bit rate : 1 460 kb/s Encoded date : UTC 2024-02-10 19:59:31 Writing application : mkvmerge v72.0.0 ('Minuano (Six-eight)') 64-bit Writing library : libebml v1.4.4 + libmatroska v1.7.1 Attachments : CRONOSPRO-BOLD.OTF / CRONOSPRO-BOLDIT.OTF / Nexa Bold.otf / nrkis.ttf / ariblk.ttf Video ID : 1 Format : HEVC Format/Info : High Efficiency Video Coding Format profile : Main 10@L4@High Codec ID : V_MPEGH/ISO/HEVC Duration : 23 min 41 s Bit rate : 1 206 kb/s Width : 1 440 pixels Height : 1 080 pixels Display aspect ratio : 4:3 Frame rate mode : Constant Frame rate : 23.976 (24000/1001) FPS Color space : YUV Chroma subsampling : 4:2:0 Bit depth : 10 bits Bits/(Pixel*Frame) : 0.032 Stream size : 204 MiB (83%) Writing library : x265 3.5+37+12-4e46995bc:[Windows][MSVC 1931][64 bit] 10bit Default : Yes Forced : No Audio #1 ID : 2 Format : Opus Codec ID : A_OPUS Duration : 23 min 41 s Bit rate : 124 kb/s Channel(s) : 2 channels Channel layout : L R Sampling rate : 48.0 kHz Frame rate : 50.000 FPS (960 SPF) Bit depth : 16 bits Compression mode : Lossy Stream size : 21.0 MiB (8%) Title : English Language : English Default : Yes Forced : No Audio #2 ID : 3 Format : Opus Codec ID : A_OPUS Duration : 23 min 41 s Bit rate : 124 kb/s Channel(s) : 2 channels Channel layout : L R Sampling rate : 48.0 kHz Frame rate : 50.000 FPS (960 SPF) Bit depth : 16 bits Compression mode : Lossy Stream size : 21.1 MiB (9%) Title : Japanese Language : Japanese Default : No Forced : No Text #1 ID : 4 Format : ASS Codec ID : S_TEXT/ASS Codec ID/Info : Advanced Sub Station Alpha Duration : 23 min 32 s Bit rate : 44 b/s Frame rate : 0.074 FPS Count of elements : 104 Compression mode : Lossless Stream size : 7.62 KiB (0%) Title : Signs & Songs Language : English Default : No Forced : Yes Text #2 ID : 5 Format : ASS Codec ID : S_TEXT/ASS Codec ID/Info : Advanced Sub Station Alpha Duration : 23 min 32 s Bit rate : 201 b/s Frame rate : 0.440 FPS Count of elements : 622 Compression mode : Lossless Stream size : 34.8 KiB (0%) Title : Dialogue Language : English Default : Yes Forced : No Menu 00:00:00.000 : :OP 00:01:14.970 : :Episode 00:21:50.000 : :ED 00:23:25.050 : :Preview ```

File list

  • [neoDESU] Lovely Complex [Season 1] [BD 1440x1080p x265 HEVC OPUS] [Dual Audio]
    • Language Options
      • 1. Make [Single Audio] English.bat (254 Bytes)
      • 2. Make [Single Audio] Japanese.bat (254 Bytes)
      • mkvmerge.exe (9.6 MiB)
      • readme.txt (511 Bytes)
    • Lovely Complex - S01E01.mkv (247.3 MiB)
    • Lovely Complex - S01E02.mkv (228.0 MiB)
    • Lovely Complex - S01E03.mkv (221.1 MiB)
    • Lovely Complex - S01E04.mkv (231.2 MiB)
    • Lovely Complex - S01E05.mkv (218.4 MiB)
    • Lovely Complex - S01E06.mkv (249.8 MiB)
    • Lovely Complex - S01E07.mkv (223.6 MiB)
    • Lovely Complex - S01E08.mkv (223.0 MiB)
    • Lovely Complex - S01E09.mkv (231.3 MiB)
    • Lovely Complex - S01E10.mkv (213.6 MiB)
    • Lovely Complex - S01E11.mkv (228.5 MiB)
    • Lovely Complex - S01E12.mkv (209.8 MiB)
    • Lovely Complex - S01E13.mkv (226.0 MiB)
    • Lovely Complex - S01E14.mkv (214.5 MiB)
    • Lovely Complex - S01E15.mkv (194.8 MiB)
    • Lovely Complex - S01E16.mkv (211.2 MiB)
    • Lovely Complex - S01E17.mkv (221.7 MiB)
    • Lovely Complex - S01E18.mkv (234.0 MiB)
    • Lovely Complex - S01E19.mkv (196.0 MiB)
    • Lovely Complex - S01E20.mkv (176.7 MiB)
    • Lovely Complex - S01E21.mkv (186.9 MiB)
    • Lovely Complex - S01E22.mkv (211.7 MiB)
    • Lovely Complex - S01E23.mkv (241.6 MiB)
    • Lovely Complex - S01E24.mkv (237.2 MiB)

len

User
Saten-san my beloved... Thanks as always for your releases!
Thank you for this blast from the past!
Thanks a bunch for this, but.... when did this show get a dub? I don't remember it ever having one.
The newly released Discotek BD came with one they commissioned
Wow this one is an oldie, How did you know I wanted to watch this xD Massive Thank you, Hopefully more old shows coming!
Oh wow. How lovely.
太感谢了!!非常喜欢这部!
Thank you so much for this unexpected surprise Neo san .
Thanks for the upload!

neoborn (uploader)

User
![](https://i.imgur.com/IX3oOFy.png)
Came here after hearing about the dub controversy. Thanks for the option to throw out the English dub. For this alone, I love your releases. Subs-only 4 life.
None of that retard youtuber's changes made it into the final product btw if anyone is concerned
I’m not sure if “none” is quite correct; we don’t have a full breakdown of what all was proposed, accepted, or rejected. But yeah most of the stuff Jello mentioned in his blogs seems to have been vetoed somewhere along the line.
it have better quality or is like the BD release of vampire knight o.o? that it looks worse