[neoDESU] Love Flops [Season 1] [BD 1080p x265 HEVC OPUS AAC] [Dual Audio] Renai Flops

Category:
Date:
2024-02-02 18:46 UTC
Submitter:
Seeders:
14
Information:
Leechers:
0
File size:
2.8 GiB
Completed:
917
Info hash:
fb57ceb8c33d01d419c9d8e90e6d9405dacfc7ce
![](https://i.imgur.com/RBlGp48.png) *Come hang out in **[Discord](https://discord.gg/47Q7FdB54e)*** #### **[Love Flops [Season 1]](https://myanimelist.net/anime/51403/Renai_Flops)** ▶️ **[Trailer](https://www.youtube.com/watch?v=d7i5bjOtaJ0)** --- **Notes:** *Changes to previous upload: Added English audio and Signs&Songs subtitles* . Resampled script . Changed main dialogue fonts . Restyled OP & ED & insert song . Created chapters --- **Synopsis** In the near future when technology has significantly advanced, a famous AI TV fortune teller seemingly foresees high school student Asahi Kashiwagi's day with pinpoint accuracy. On his way to school, he encounters Aoi Izumisawa, Bai Mongfa, Karin Istel, Amelia Irving, and Ilya Ilyukhin. Despite meeting them for the first time, Asahi suddenly receives love confessions from all of them at the end of the same day, perfectly aligning with the fortune teller's prediction. As if that was not enough, Asahi soon learns that these five individuals are actually candidates to become his bride, and they have been invited by his father to live at Asahi's home. Left with no other choice, he reluctantly allows them to stay, resulting in a bawdy turn of events that brightens up his average high school life. However, as Asahi spends more time with them, forgotten memories gradually resurface. While uncovering the hidden truth, Asahi begins to believe that his fate with these potential partners might be more than just mere coincidence. ![](https://i.imgur.com/jra9NYy.png) --- **Language Options** I included two simple scripts that you can apply to these files to do the following (Windows only): 1. Make [Single Audio] Japanese: Throws out *English audio* and *Signs&Songs subtitles* tracks 2. Make [Single Audio] English: Throws out *Japanese audio* and *Dialogue subtitles* tracks To apply these put all the video files into the *Language Options* folder and run the .bat file. *Don't combine them and only use them once together with the base files.* --- **Source** 🗃️ Video and JPN Audio (JPN BDMV): **[STDM]** 🗃️ ENG Audio (US BDMV): **[zanros]** 🗃️ Subtitles: **[[Zafkiel]](https://nyaa.si/view/1618937)** 💬 *Subtitles Info: [Zafkiel] Base [Me] Edits, see notes* *Thank you all for making this possible <3* --- **Media Info** 🆔 **[Full Mediainfo incl. Encoder Settings](https://pastebin.com/W0z8qgkB)** ``` General Unique ID : 140270358471481282582793009299907814192 (0x6987169F5A10A97D9102CF935B2E2330) Complete name : Love Flops - S01E01.mkv Format : Matroska Format version : Version 4 File size : 206 MiB Duration : 23 min 42 s Overall bit rate : 1 216 kb/s Encoded date : UTC 2024-02-02 17:53:33 Writing application : mkvmerge v72.0.0 ('Minuano (Six-eight)') 64-bit Writing library : libebml v1.4.4 + libmatroska v1.7.1 Attachments : Passing Notes.ttf / ResPublica.ttf / Stoobs.ttf / tahomabd.ttf / THERIFV2.TTF / TWINPINE.TTF / Avenue.otf / CRONOSPRO-BOLD.OTF / CRONOSPRO-BOLDIT.OTF / Grandstander-clean.otf / PaintyPaint.TTF / poo_3.TTF / PPETRIAL.ttf / Qlassik_TB.ttf / tahomabd.ttf / Tetris Mania Type.ttf / TheSimpleOne.ttf Video ID : 1 Format : HEVC Format/Info : High Efficiency Video Coding Format profile : Main 10@L4@High Codec ID : V_MPEGH/ISO/HEVC Duration : 23 min 41 s Bit rate : 951 kb/s Width : 1 920 pixels Height : 1 080 pixels Display aspect ratio : 16:9 Frame rate mode : Constant Frame rate : 23.976 (24000/1001) FPS Color space : YUV Chroma subsampling : 4:2:0 (Type 0) Bit depth : 10 bits Bits/(Pixel*Frame) : 0.019 Stream size : 161 MiB (78%) Writing library : x265 3.5+1-f0c1022b6:[Windows][GCC 10.2.0][64 bit] 10bit Default : Yes Forced : No Color range : Limited Color primaries : BT.709 Transfer characteristics : BT.709 Matrix coefficients : BT.709 Audio #1 ID : 2 Format : Opus Codec ID : A_OPUS Duration : 23 min 42 s Bit rate : 114 kb/s Channel(s) : 2 channels Channel layout : L R Sampling rate : 48.0 kHz Frame rate : 50.000 FPS (960 SPF) Compression mode : Lossy Stream size : 19.3 MiB (9%) Title : English Language : English Default : Yes Forced : No Audio #2 ID : 3 Format : AAC LC Format/Info : Advanced Audio Codec Low Complexity Codec ID : A_AAC-2 Duration : 23 min 41 s Bit rate : 114 kb/s Channel(s) : 2 channels Channel layout : L R Sampling rate : 48.0 kHz Frame rate : 46.875 FPS (1024 SPF) Compression mode : Lossy Stream size : 19.4 MiB (9%) Title : Japanese Language : Japanese Default : No Forced : No Text #1 ID : 4 Format : ASS Codec ID : S_TEXT/ASS Codec ID/Info : Advanced Sub Station Alpha Duration : 22 min 28 s Bit rate : 19 b/s Frame rate : 0.025 FPS Count of elements : 34 Compression mode : Lossless Stream size : 3.26 KiB (0%) Title : Signs & Songs Language : English Default : No Forced : Yes Text #2 ID : 5 Format : ASS Codec ID : S_TEXT/ASS Codec ID/Info : Advanced Sub Station Alpha Duration : 23 min 15 s Bit rate : 166 b/s Frame rate : 0.376 FPS Count of elements : 524 Compression mode : Lossless Stream size : 28.3 KiB (0%) Title : Dialogue Language : English Default : Yes Forced : No Menu 00:00:00.000 : :Episode 00:23:25.010 : :Preview ```

File list

  • [neoDESU] Love Flops [Season 1] [BD 1080p x265 HEVC OPUS AAC] [Dual Audio]
    • Language Options
      • 1. Make [Single Audio] English.bat (254 Bytes)
      • 2. Make [Single Audio] Japanese.bat (254 Bytes)
      • mkvmerge.exe (9.6 MiB)
      • readme.txt (511 Bytes)
    • Love Flops - S01E01.mkv (206.1 MiB)
    • Love Flops - S01E02.mkv (227.9 MiB)
    • Love Flops - S01E03.mkv (197.9 MiB)
    • Love Flops - S01E04.mkv (241.1 MiB)
    • Love Flops - S01E05.mkv (228.4 MiB)
    • Love Flops - S01E06.mkv (268.3 MiB)
    • Love Flops - S01E07.mkv (211.2 MiB)
    • Love Flops - S01E08.mkv (258.5 MiB)
    • Love Flops - S01E09.mkv (217.0 MiB)
    • Love Flops - S01E10.mkv (290.7 MiB)
    • Love Flops - S01E11.mkv (268.9 MiB)
    • Love Flops - S01E12.mkv (204.3 MiB)
![💕](https://i.imgur.com/Bk8hGM1.png)