Say.I.Love.You.S01.1080p.BluRay.10-Bit.Dual-Audio.FLAC2.0.x265-YURASUKA (Sukitte Ii na yo)

Category:
Date:
2024-01-27 05:27 UTC
Submitter:
Seeders:
10
Information:
Leechers:
0
File size:
9.6 GiB
Completed:
415
Info hash:
cee9f619d2a74eb9e943470a30ec411d1eadcd3a
Say "I Love You." / Sukitte Ii na yo (2012) A/V Source: U2娘@Share (JPBD) Subtitles + English Audio Source: [CTR@Nyaa](https://nyaa.si/view/967869) [IB] [Encode Comparison](https://slow.pics/c/CwgxrZ6M) ``` Complete name : Say.I.Love.You.S01E05.1080p.BluRay.10-Bit.Dual-Audio.FLAC2.0.x265-YURASUKA.mkv Format : Matroska Format version : Version 4 File size : 767 MiB Duration : 23 min 43 s Overall bit rate mode : Variable Overall bit rate : 4 523 kb/s Frame rate : 23.976 FPS Movie name : Say "I Love You." - S01E05 - YURASUKA Encoded date : 2024-01-27 00:06:26 UTC Writing application : mkvmerge v82.0 ('I'm The President') 64-bit Writing library : libebml v1.4.5 + libmatroska v1.7.1 Attachments : 9SALERNO.TTF / Ammys Handwriting.ttf / CantoriaMTStd-SemiBoldIt.otf / Comfortaa-Bold.ttf / Designio Regular.otf / FAKTOS.TTF / Franco Bold Italic.ttf / Franco Bold.ttf / Franco Italic.ttf / Franco Normal.ttf / jd_led3.ttf / JosefinSans-Bold.ttf / Kiki.ttf / lastninja.ttf / PhontPhreaks Handwriting.ttf / SANFW_.TTF / Shelter_Me.ttf / YOR.TTF Video ID : 1 Format : HEVC Format/Info : High Efficiency Video Coding Format profile : Main 10@L5@High Codec ID : V_MPEGH/ISO/HEVC Duration : 23 min 42 s Bit rate : 3 460 kb/s Width : 1 920 pixels Height : 1 080 pixels Display aspect ratio : 16:9 Frame rate mode : Constant Frame rate : 23.976 (24000/1001) FPS Color space : YUV Chroma subsampling : 4:2:0 Bit depth : 10 bits Bits/(Pixel*Frame) : 0.070 Stream size : 586 MiB (76%) Title : YURASUKA 1080p x265 Writing library : x265 3.5:[Linux][GCC 11.2.0][64 bit] 10bit Encoding settings : cpuid=1176575 / frame-threads=5 / numa-pools=32 / wpp / no-pmode / no-pme / no-psnr / no-ssim / log-level=2 / input-csp=1 / input-res=1920x1080 / interlace=0 / total-frames=0 / level-idc=0 / high-tier=1 / uhd-bd=0 / ref=6 / no-allow-non-conformance / no-repeat-headers / annexb / no-aud / no-hrd / info / hash=0 / no-temporal-layers / open-gop / min-keyint=1 / keyint=360 / gop-lookahead=0 / bframes=16 / b-adapt=2 / b-pyramid / bframe-bias=0 / rc-lookahead=72 / lookahead-slices=4 / scenecut=40 / hist-scenecut=0 / radl=0 / no-splice / no-intra-refresh / ctu=32 / min-cu-size=8 / rect / amp / max-tu-size=32 / tu-inter-depth=3 / tu-intra-depth=3 / limit-tu=4 / rdoq-level=2 / dynamic-rd=0.00 / no-ssim-rd / signhide / tskip / nr-intra=0 / nr-inter=0 / no-constrained-intra / strong-intra-smoothing / max-merge=5 / limit-refs=3 / limit-modes / me=3 / subme=7 / merange=57 / temporal-mvp / no-frame-dup / no-hme / weightp / weightb / analyze-src-pics / deblock=0:0 / no-sao / no-sao-non-deblock / rd=6 / selective-sao=0 / no-early-skip / rskip / no-fast-intra / no-tskip-fast / no-cu-lossless / b-intra / no-splitrd-skip / rdpenalty=0 / psy-rd=2.00 / psy-rdoq=2.00 / no-rd-refine / no-lossless / cbqpoffs=-2 / crqpoffs=-2 / rc=crf / crf=16.0 / qcomp=0.72 / qpstep=4 / stats-write=0 / stats-read=0 / vbv-maxrate=15000 / vbv-bufsize=30000 / vbv-init=0.9 / min-vbv-fullness=50.0 / max-vbv-fullness=80.0 / crf-max=0.0 / crf-min=0.0 / ipratio=1.40 / pbratio=1.30 / aq-mode=3 / aq-strength=0.85 / cutree / zone-count=0 / no-strict-cbr / qg-size=32 / no-rc-grain / qpmax=69 / qpmin=0 / no-const-vbv / sar=1 / overscan=0 / videoformat=5 / range=0 / colorprim=1 / transfer=1 / colormatrix=1 / chromaloc=0 / display-window=0 / cll=0,0 / min-luma=0 / max-luma=1023 / log2-max-poc-lsb=8 / vui-timing-info / vui-hrd-info / slices=1 / no-opt-qp-pps / no-opt-ref-list-length-pps / no-multi-pass-opt-rps / scenecut-bias=0.05 / hist-threshold=0.03 / no-opt-cu-delta-qp / no-aq-motion / no-hdr10 / no-hdr10-opt / no-dhdr10-opt / no-idr-recovery-sei / analysis-reuse-level=0 / analysis-save-reuse-level=0 / analysis-load-reuse-level=0 / scale-factor=0 / refine-intra=0 / refine-inter=0 / refine-mv=1 / refine-ctu-distortion=0 / no-limit-sao / ctu-info=0 / no-lowpass-dct / refine-analysis-type=0 / copy-pic=1 / max-ausize-factor=1.0 / no-dynamic-refine / no-single-sei / no-hevc-aq / no-svt / no-field / qp-adaptation-range=1.00 / scenecut-aware-qp=0conformance-window-offsets / right=0 / bottom=0 / decoder-max-rate=0 / no-vbv-live-multi-pass Language : Japanese Default : Yes Forced : No Color range : Limited Color primaries : BT.709 Transfer characteristics : BT.709 Matrix coefficients : BT.709 Audio #1 ID : 2 Format : FLAC Format/Info : Free Lossless Audio Codec Codec ID : A_FLAC Duration : 23 min 43 s Bit rate mode : Variable Bit rate : 508 kb/s Channel(s) : 2 channels Channel layout : L R Sampling rate : 48.0 kHz Frame rate : 11.719 FPS (4096 SPF) Bit depth : 16 bits Compression mode : Lossless Stream size : 86.2 MiB (11%) Title : English FLAC 2.0 Writing library : libFLAC 1.2.1 (2007-09-17) Language : English Default : Yes Forced : No MD5 of the unencoded content : 97076E5875EE4F5A788F0B822ABF4816 Audio #2 ID : 3 Format : FLAC Format/Info : Free Lossless Audio Codec Codec ID : A_FLAC Duration : 23 min 42 s Bit rate mode : Variable Bit rate : 544 kb/s Channel(s) : 2 channels Channel layout : L R Sampling rate : 48.0 kHz Frame rate : 10.417 FPS (4608 SPF) Bit depth : 16 bits Compression mode : Lossless Stream size : 92.2 MiB (12%) Title : Japanese FLAC 2.0 Writing library : Lavf60.20.100 Language : Japanese Default : Yes Forced : No MD5 of the unencoded content : 8419AC2180C9D59076900DA71B183795 Text #1 ID : 4 Format : ASS Codec ID : S_TEXT/ASS Codec ID/Info : Advanced Sub Station Alpha Duration : 21 min 8 s Bit rate : 94 b/s Frame rate : 0.108 FPS Count of elements : 137 Compression mode : Lossless Stream size : 14.7 KiB (0%) Title : Signs & Songs [IB] Language : English Default : Yes Forced : Yes Text #2 ID : 5 Format : ASS Codec ID : S_TEXT/ASS Codec ID/Info : Advanced Sub Station Alpha Duration : 23 min 20 s Bit rate : 200 b/s Frame rate : 0.390 FPS Count of elements : 547 Compression mode : Lossless Stream size : 34.3 KiB (0%) Title : Full Subtitles [IB] Language : English Default : No Forced : No Menu 00:00:00.000 : en:Intro 00:02:26.800 : en:OP 00:03:56.500 : en:Part A 00:10:33.500 : en:Part B 00:21:50.000 : en:ED 00:23:20.000 : en:Preview ``` Dead end for a sucker that’s a sucker like me. 私のようなカモの行き止まりです。

File list

  • Say.I.Love.You.S01.1080p.BluRay.10-Bit.Dual-Audio.FLAC2.0.x265-YURASUKA
    • Say.I.Love.You.S01E01.1080p.BluRay.10-Bit.Dual-Audio.FLAC2.0.x265-YURASUKA.mkv (796.2 MiB)
    • Say.I.Love.You.S01E02.1080p.BluRay.10-Bit.Dual-Audio.FLAC2.0.x265-YURASUKA.mkv (745.2 MiB)
    • Say.I.Love.You.S01E03.1080p.BluRay.10-Bit.Dual-Audio.FLAC2.0.x265-YURASUKA.mkv (802.2 MiB)
    • Say.I.Love.You.S01E04.1080p.BluRay.10-Bit.Dual-Audio.FLAC2.0.x265-YURASUKA.mkv (708.7 MiB)
    • Say.I.Love.You.S01E05.1080p.BluRay.10-Bit.Dual-Audio.FLAC2.0.x265-YURASUKA.mkv (767.2 MiB)
    • Say.I.Love.You.S01E06.1080p.BluRay.10-Bit.Dual-Audio.FLAC2.0.x265-YURASUKA.mkv (793.5 MiB)
    • Say.I.Love.You.S01E07.1080p.BluRay.10-Bit.Dual-Audio.FLAC2.0.x265-YURASUKA.mkv (736.9 MiB)
    • Say.I.Love.You.S01E08.1080p.BluRay.10-Bit.Dual-Audio.FLAC2.0.x265-YURASUKA.mkv (737.8 MiB)
    • Say.I.Love.You.S01E09.1080p.BluRay.10-Bit.Dual-Audio.FLAC2.0.x265-YURASUKA.mkv (803.4 MiB)
    • Say.I.Love.You.S01E10.1080p.BluRay.10-Bit.Dual-Audio.FLAC2.0.x265-YURASUKA.mkv (733.4 MiB)
    • Say.I.Love.You.S01E11.1080p.BluRay.10-Bit.Dual-Audio.FLAC2.0.x265-YURASUKA.mkv (774.3 MiB)
    • Say.I.Love.You.S01E12.1080p.BluRay.10-Bit.Dual-Audio.FLAC2.0.x265-YURASUKA.mkv (665.7 MiB)
    • Say.I.Love.You.S01E13.1080p.BluRay.10-Bit.Dual-Audio.FLAC2.0.x265-YURASUKA.mkv (794.0 MiB)
It's painful to watch how subs are not synced.