[neoDESU] KanColle: Kantai Collection - Let's Meet at Sea [Season 2] [WEB 1080p x265 HEVC AAC] KanColle: Itsuka Ano Umi de

Category:
Date:
2024-01-21 18:35 UTC
Submitter:
Seeders:
9
Information:
Leechers:
0
File size:
2.9 GiB
Completed:
475
Info hash:
928654e7277195f2ba59f10d20954c7915ceb493
![](https://i.lensdump.com/i/6BKULK.png) *Come hang out in **[Discord](https://discord.gg/47Q7FdB54e)*** #### **[KanColle: Kantai Collection - Let's Meet at Sea [Season 2]](https://myanimelist.net/anime/30455/KanColle__Itsuka_Ano_Umi_de)** ▶️ **[Trailer](https://www.youtube.com/watch?v=xIxr5bwkLaE)** --- **Notes:** . Restyled script and changed fonts . Created styled OP & ED . Created chapters --- **Synopsis** The dawn of a decisive battle nears in Leyte Gulf against the Abyssal Fleet, the mysterious enemies that occupy the sea. As the only ones capable of fighting them, Kanmusu—young girls possessing the souls of warships—reorganize in preparation. The Shiratsuyu-class destroyer Shigure is assigned to the First Striking Force, Third Section—also known as 1YB3H. Unfortunately for Shigure, 1YB3H consists of the remaining few Kanmusu and serves as a diversionary fleet. Needing to confront the Abyssal Fleet head-on, it may well be their first and final mission together. Even so, Shigure refuses to let the enemy take another comrade from her. As they advance toward Leyte Gulf during this suicidal mission, the members of 1YB3H must support each other and persevere to prove their worth as competent ships. ![](https://b.l3n.co/i/4n6T0i.png) --- **Source** 🗃️ Video, Audio and Subtitles (WEB): **[[SubsPlease]](https://nyaa.si/view/1598694)** 💬 *Subtitles Info: [SubsPlease] Base [Me] Edits, see notes* *Thank you all for making this possible <3* --- **Media Info** ``` General Unique ID : 54398378784464959844837686636086012540 (0x28ECBF25499959BB378EEC20500FAA7C) Complete name : KanColle - Kantai Collection - S02E01.mkv Format : Matroska Format version : Version 4 File size : 366 MiB Duration : 23 min 40 s Overall bit rate : 2 163 kb/s Encoded date : UTC 2024-01-21 17:54:19 Writing application : mkvmerge v72.0.0 ('Minuano (Six-eight)') 64-bit Writing library : libebml v1.4.4 + libmatroska v1.7.1 / Lavf59.27.100 Attachments : arial.ttf / arialbd.ttf / times.ttf / timesbd.ttf / CRONOSPRO-BOLD.OTF / CRONOSPRO-BOLDIT.OTF / Roboto-Medium.ttf / Roboto-MediumItalic.ttf / arial.ttf / arialbd.ttf / comic.ttf / comicbd.ttf / times.ttf / timesbd.ttf / trebuc.ttf / trebucbd.ttf / verdana.ttf / verdanab.ttf / trebuc.ttf / times.ttf / verdana.ttf / arial.ttf / AdobeArabic-Bold.otf / tahoma.ttf Video ID : 1 Format : HEVC Format/Info : High Efficiency Video Coding Format profile : Main 10@L4@High Codec ID : V_MPEGH/ISO/HEVC Duration : 23 min 40 s Bit rate : 1 963 kb/s Width : 1 920 pixels Height : 1 080 pixels Display aspect ratio : 16:9 Frame rate mode : Constant Frame rate : 23.976 (24000/1001) FPS Color space : YUV Chroma subsampling : 4:2:0 (Type 0) Bit depth : 10 bits Bits/(Pixel*Frame) : 0.039 Stream size : 332 MiB (91%) Writing library : x265 3.5+1-f0c1022b6:[Windows][GCC 10.2.0][64 bit] 10bit Encoding settings : cpuid=1111039 / frame-threads=5 / numa-pools=32 / wpp / no-pmode / no-pme / no-psnr / no-ssim / log-level=2 / input-csp=1 / input-res=1920x1080 / interlace=0 / total-frames=0 / level-idc=40 / high-tier=1 / uhd-bd=0 / ref=5 / no-allow-non-conformance / no-repeat-headers / annexb / no-aud / no-eob / no-eos / no-hrd / info / hash=0 / no-temporal-layers / open-gop / min-keyint=24 / keyint=240 / gop-lookahead=0 / bframes=16 / b-adapt=2 / b-pyramid / bframe-bias=0 / rc-lookahead=120 / lookahead-slices=4 / scenecut=40 / no-hist-scenecut / radl=0 / no-splice / no-intra-refresh / ctu=64 / min-cu-size=8 / rect / no-amp / max-tu-size=32 / tu-inter-depth=1 / tu-intra-depth=1 / limit-tu=0 / rdoq-level=1 / dynamic-rd=0.00 / no-ssim-rd / signhide / no-tskip / nr-intra=0 / nr-inter=0 / no-constrained-intra / no-strong-intra-smoothing / max-merge=3 / limit-refs=3 / limit-modes / me=3 / subme=3 / merange=57 / temporal-mvp / no-frame-dup / no-hme / weightp / no-weightb / no-analyze-src-pics / deblock=-1:-1 / no-sao / no-sao-non-deblock / rd=4 / selective-sao=0 / no-early-skip / rskip / no-fast-intra / no-tskip-fast / no-cu-lossless / no-b-intra / no-splitrd-skip / rdpenalty=0 / psy-rd=2.00 / psy-rdoq=2.00 / no-rd-refine / no-lossless / cbqpoffs=0 / crqpoffs=0 / rc=crf / crf=22.0 / qcomp=0.60 / qpstep=4 / stats-write=0 / stats-read=0 / vbv-maxrate=30000 / vbv-bufsize=30000 / vbv-init=0.9 / min-vbv-fullness=50.0 / max-vbv-fullness=80.0 / crf-max=0.0 / crf-min=0.0 / ipratio=1.40 / pbratio=1.30 / aq-mode=3 / aq-strength=0.80 / cutree / zone-count=0 / no-strict-cbr / qg-size=32 / no-rc-grain / qpmax=69 / qpmin=0 / no-const-vbv / sar=1 / overscan=0 / videoformat=5 / range=0 / colorprim=1 / transfer=1 / colormatrix=1 / chromaloc=1 / chromaloc-top=0 / chromaloc-bottom=0 / display-window=0 / cll=0,0 / min-luma=0 / max-luma=1023 / log2-max-poc-lsb=8 / vui-timing-info / vui-hrd-info / slices=1 / no-opt-qp-pps / no-opt-ref-list-length-pps / no-multi-pass-opt-rps / scenecut-bias=0.05 / no-opt-cu-delta-qp / no-aq-motion / no-sbrc / no-hdr10 / no-hdr10-opt / no-dhdr10-opt / no-idr-recovery-sei / analysis-reuse-level=0 / analysis-save-reuse-level=0 / analysis-load-reuse-level=0 / scale-factor=0 / refine-intra=0 / refine-inter=0 / refine-mv=1 / refine-ctu-distortion=0 / no-limit-sao / ctu-info=0 / no-lowpass-dct / refine-analysis-type=0 / copy-pic=1 / max-ausize-factor=1.0 / no-dynamic-refine / no-single-sei / no-hevc-aq / no-svt / no-field / qp-adaptation-range=1.00 / scenecut-aware-qp=0conformance-window-offsets / right=0 / bottom=0 / decoder-max-rate=0 / no-vbv-live-multi-pass / no-mcstf Default : Yes Forced : No Color range : Limited Color primaries : BT.709 Transfer characteristics : BT.709 Matrix coefficients : BT.709 Audio ID : 2 Format : AAC LC Format/Info : Advanced Audio Codec Low Complexity Codec ID : A_AAC-2 Duration : 23 min 40 s Bit rate : 128 kb/s Channel(s) : 2 channels Channel layout : L R Sampling rate : 44.1 kHz Frame rate : 43.066 FPS (1024 SPF) Compression mode : Lossy Stream size : 21.7 MiB (6%) Title : Japanese Language : Japanese Default : Yes Forced : No Text ID : 3 Format : ASS Codec ID : S_TEXT/ASS Codec ID/Info : Advanced Sub Station Alpha Duration : 23 min 19 s Bit rate : 203 b/s Frame rate : 0.317 FPS Count of elements : 443 Compression mode : Lossless Stream size : 34.8 KiB (0%) Title : Dialogue Language : English Default : Yes Forced : No Menu 00:00:00.000 : :Intro 00:02:43.140 : :OP 00:04:12.980 : :Episode 00:22:09.980 : :ED 00:23:34.680 : :Preview ```

File list

  • [neoDESU] KanColle - Kantai Collection [Season 2] [WEB 1080p x265 HEVC AAC]
    • KanColle - Kantai Collection - S02E01.mkv (366.2 MiB)
    • KanColle - Kantai Collection - S02E02.mkv (411.2 MiB)
    • KanColle - Kantai Collection - S02E03.mkv (384.4 MiB)
    • KanColle - Kantai Collection - S02E04.mkv (234.8 MiB)
    • KanColle - Kantai Collection - S02E05.mkv (345.7 MiB)
    • KanColle - Kantai Collection - S02E06.mkv (362.4 MiB)
    • KanColle - Kantai Collection - S02E07.mkv (342.5 MiB)
    • KanColle - Kantai Collection - S02E08.mkv (484.9 MiB)