Sound.Euphonium.Ensemble.Contest.2023.1080p.BluRay.10-Bit.FLAC5.1.x265-YURASUKA (Tokubetsu Hen Hibike Euphonium Ensemble Contest)

Category:
Date:
2024-01-20 05:33 UTC
Submitter:
Seeders:
42
Information:
Leechers:
0
File size:
2.4 GiB
Completed:
1073
Info hash:
970d5ca56ef00ada49d9a0e22b475ab670a18db3
Sound! Euphonium: Ensemble Contest / Tokubetsu Hen Hibike! Euphonium ~Ensemble Contest~ (2023) A/V Source: Team HAYAKU@U2 (JPBD) Recommended Subtitles: [Animorphs@Nyaa](https://nyaa.si/view/1704336#com-8) [whomst] Additional Subtitles: [Anisuki@Nyaa](https://nyaa.si/view/1704513) [ray] [Encode Comparison](https://slow.pics/c/K2HB6dfM) ``` Complete name : Sound.Euphonium.Ensemble.Contest.2023.1080p.BluRay.10-Bit.FLAC5.1.x265-YURASUKA.mkv Format : Matroska Format version : Version 4 File size : 2.36 GiB Duration : 57 min 11 s Overall bit rate mode : Variable Overall bit rate : 5 902 kb/s Frame rate : 23.976 FPS Movie name : Sound! Euphonium: Ensemble Contest (2023) - YURASUKA Encoded date : 2024-01-20 04:56:30 UTC Writing application : mkvmerge v82.0 ('I'm The President') 64-bit Writing library : libebml v1.4.5 + libmatroska v1.7.1 Attachments : ARIAL.TTF / GANDHISANS-BOLD.OTF / GANDHISANS-BOLDITALIC.OTF / INDIEFLOWER.TTF / LTFINNEGAN_MEDIUM.TTF / LT.ttf / LTFinnegan_MediumItalic.ttf / NotoSerifJP-Regular.otf / NotoSerifJP-Bold.otf / IndieFlower-Regular.ttf / GochiHand-Regular.ttf / ETBembo-SemiBoldOSF.otf / ETBembo-RomanLF.otf / ETBembo-DisplayItalic.otf / Symbola.otf Video ID : 1 Format : HEVC Format/Info : High Efficiency Video Coding Format profile : Main 10@L5@Main Codec ID : V_MPEGH/ISO/HEVC Duration : 57 min 11 s Bit rate : 4 751 kb/s Width : 1 920 pixels Height : 1 080 pixels Display aspect ratio : 16:9 Frame rate mode : Constant Frame rate : 23.976 (24000/1001) FPS Color space : YUV Chroma subsampling : 4:2:0 Bit depth : 10 bits Bits/(Pixel*Frame) : 0.096 Stream size : 1.90 GiB (81%) Title : YURASUKA 1080p x265 Writing library : x265 3.5:[Linux][GCC 11.2.0][64 bit] 10bit Encoding settings : cpuid=1176575 / frame-threads=5 / numa-pools=32 / wpp / no-pmode / no-pme / no-psnr / no-ssim / log-level=2 / input-csp=1 / input-res=1920x1080 / interlace=0 / total-frames=0 / level-idc=0 / high-tier=1 / uhd-bd=0 / ref=6 / no-allow-non-conformance / no-repeat-headers / annexb / no-aud / no-hrd / info / hash=0 / no-temporal-layers / open-gop / min-keyint=1 / keyint=360 / gop-lookahead=0 / bframes=16 / b-adapt=2 / b-pyramid / bframe-bias=0 / rc-lookahead=72 / lookahead-slices=4 / scenecut=40 / hist-scenecut=0 / radl=0 / no-splice / no-intra-refresh / ctu=32 / min-cu-size=8 / rect / amp / max-tu-size=32 / tu-inter-depth=3 / tu-intra-depth=3 / limit-tu=4 / rdoq-level=2 / dynamic-rd=0.00 / no-ssim-rd / signhide / tskip / nr-intra=0 / nr-inter=0 / no-constrained-intra / strong-intra-smoothing / max-merge=5 / limit-refs=3 / limit-modes / me=3 / subme=7 / merange=57 / temporal-mvp / no-frame-dup / no-hme / weightp / weightb / analyze-src-pics / deblock=0:0 / no-sao / no-sao-non-deblock / rd=6 / selective-sao=0 / no-early-skip / rskip / no-fast-intra / no-tskip-fast / no-cu-lossless / b-intra / no-splitrd-skip / rdpenalty=0 / psy-rd=2.00 / psy-rdoq=2.00 / no-rd-refine / no-lossless / cbqpoffs=-2 / crqpoffs=-2 / rc=crf / crf=16.0 / qcomp=0.72 / qpstep=4 / stats-write=0 / stats-read=0 / vbv-maxrate=12000 / vbv-bufsize=24000 / vbv-init=0.9 / min-vbv-fullness=50.0 / max-vbv-fullness=80.0 / crf-max=0.0 / crf-min=0.0 / ipratio=1.40 / pbratio=1.30 / aq-mode=3 / aq-strength=0.95 / cutree / zone-count=0 / no-strict-cbr / qg-size=32 / no-rc-grain / qpmax=69 / qpmin=0 / no-const-vbv / sar=1 / overscan=0 / videoformat=5 / range=0 / colorprim=1 / transfer=1 / colormatrix=1 / chromaloc=0 / display-window=0 / cll=0,0 / min-luma=0 / max-luma=1023 / log2-max-poc-lsb=8 / vui-timing-info / vui-hrd-info / slices=1 / no-opt-qp-pps / no-opt-ref-list-length-pps / no-multi-pass-opt-rps / scenecut-bias=0.05 / hist-threshold=0.03 / no-opt-cu-delta-qp / no-aq-motion / no-hdr10 / no-hdr10-opt / no-dhdr10-opt / no-idr-recovery-sei / analysis-reuse-level=0 / analysis-save-reuse-level=0 / analysis-load-reuse-level=0 / scale-factor=0 / refine-intra=0 / refine-inter=0 / refine-mv=1 / refine-ctu-distortion=0 / no-limit-sao / ctu-info=0 / no-lowpass-dct / refine-analysis-type=0 / copy-pic=1 / max-ausize-factor=1.0 / no-dynamic-refine / no-single-sei / no-hevc-aq / no-svt / no-field / qp-adaptation-range=1.00 / scenecut-aware-qp=0conformance-window-offsets / right=0 / bottom=0 / decoder-max-rate=0 / no-vbv-live-multi-pass Language : Japanese Default : Yes Forced : No Color range : Limited Color primaries : BT.709 Transfer characteristics : BT.709 Matrix coefficients : BT.709 Audio ID : 2 Format : FLAC Format/Info : Free Lossless Audio Codec Codec ID : A_FLAC Duration : 57 min 11 s Bit rate mode : Variable Bit rate : 1 106 kb/s Channel(s) : 6 channels Channel layout : L R C LFE Ls Rs Sampling rate : 48.0 kHz Frame rate : 10.417 FPS (4608 SPF) Bit depth : 16 bits Compression mode : Lossless Stream size : 453 MiB (19%) Title : Japanese FLAC 5.1 Writing library : Lavf60.16.100 Language : Japanese Default : Yes Forced : No MD5 of the unencoded content : 2AB0C5C2885D35F8EC10BDC633C0E7A1 Text #1 ID : 3 Format : ASS Codec ID : S_TEXT/ASS Codec ID/Info : Advanced Sub Station Alpha Duration : 51 min 36 s Bit rate : 164 b/s Frame rate : 0.307 FPS Count of elements : 951 Compression mode : Lossless Stream size : 62.2 KiB (0%) Title : English Subtitles [whomst] Language : English Default : Yes Forced : No Text #2 ID : 4 Format : ASS Codec ID : S_TEXT/ASS Codec ID/Info : Advanced Sub Station Alpha Duration : 56 min 25 s Bit rate : 143 b/s Frame rate : 0.303 FPS Count of elements : 1024 Compression mode : Lossless Stream size : 59.4 KiB (0%) Title : English Subtitles [AniSuki] Language : English Default : No Forced : No Text #3 ID : 5 Format : ASS Codec ID : S_TEXT/ASS Codec ID/Info : Advanced Sub Station Alpha Duration : 56 min 40 s Bit rate : 144 b/s Frame rate : 0.302 FPS Count of elements : 1028 Compression mode : Lossless Stream size : 59.9 KiB (0%) Title : English Subtitles [ray] Language : English Default : No Forced : No Menu 00:00:00.000 : en:Chapter 01 00:05:58.483 : en:Chapter 02 00:14:42.381 : en:Chapter 03 00:22:23.884 : en:Chapter 04 00:28:10.730 : en:Chapter 05 00:41:16.891 : en:Chapter 06 00:46:04.052 : en:Chapter 07 00:52:22.472 : en:Chapter 08 00:57:11.428 : en:Chapter 09 ``` Dead end for a sucker that’s a sucker like me. 私のようなカモの行き止まりです。

File list