Tanaka-kun.Is.Always.Listless.S01.1080p.BluRay.10-Bit.Dual-Audio.FLAC2.0.x265-YURASUKA (Tanaka-kun wa Itsumo Kedaruge)

Category:
Date:
2024-01-13 02:38 UTC
Submitter:
Seeders:
6
Information:
Leechers:
0
File size:
7.2 GiB
Completed:
389
Info hash:
a774bd9975ab49fc8ebd73e550e0d5fb2b1e016b
Tanaka-kun Is Always Listless / Tanaka-kun wa Itsumo Kedaruge (2016) A/V Source: 白茅baimao@TSDM (JPBD) Subtitles Source: [Kametsu@Nyaa](https://nyaa.si/view/1038137) [GJM] [Encode Comparison](https://slow.pics/c/i6J6kA3R) ``` Complete name : Tanaka-kun.Is.Always.Listless.S01E01.1080p.BluRay.10-Bit.Dual-Audio.FLAC2.0.x265-YURASUKA.mkv Format : Matroska Format version : Version 4 File size : 606 MiB Duration : 23 min 48 s Overall bit rate mode : Variable Overall bit rate : 3 559 kb/s Frame rate : 23.976 FPS Movie name : Tanaka-kun Is Always Listless - S01E01 - YURASUKA Encoded date : 2024-01-12 19:14:50 UTC Writing application : mkvmerge v82.0 ('I'm The President') 64-bit Writing library : libebml v1.4.5 + libmatroska v1.7.1 Attachments : CASINOHAND.OTF / CCCARRYONSCREAMINGMEDIUM.TTF / DEVINNEBT-TEXT.OTF / DKHARIMAU.OTF / DKKESWICK.TTF / ENTERSANSMANBOLD.TTF / FORMATA-REGULAR.OTF / framd.ttf / GandhiSans-Bold_A.otf / GandhiSans-BoldItalic_A.otf / IwaNGoPro-Eb-CP_1.ttf / IWARGOPRO-MD-KAMI.TTF / KFHIMAJI-FFF-MOD-FFF.TTF / KGBLANKSPACE-SOLID.TTF / KozukaMinchoProStrp-Regular_0.otf / PENCILFIED.TTF / playtime.ttf / Polo Brush.ttf / Square.ttf / BOLONEWT.TTF / BRUSH445BT-REGULAR.TTF / BrushStroke-Regular.otf Video ID : 1 Format : HEVC Format/Info : High Efficiency Video Coding Format profile : Main 10@L5@High Codec ID : V_MPEGH/ISO/HEVC Duration : 23 min 48 s Bit rate : 2 379 kb/s Width : 1 920 pixels Height : 1 080 pixels Display aspect ratio : 16:9 Frame rate mode : Constant Frame rate : 23.976 (24000/1001) FPS Color space : YUV Chroma subsampling : 4:2:0 Bit depth : 10 bits Bits/(Pixel*Frame) : 0.048 Stream size : 405 MiB (67%) Title : YURASUKA 1080p x265 Writing library : x265 3.5:[Linux][GCC 11.2.0][64 bit] 10bit Encoding settings : cpuid=1111039 / frame-threads=5 / numa-pools=32 / wpp / no-pmode / no-pme / no-psnr / no-ssim / log-level=2 / input-csp=1 / input-res=1920x1080 / interlace=0 / total-frames=0 / level-idc=0 / high-tier=1 / uhd-bd=0 / ref=6 / no-allow-non-conformance / no-repeat-headers / annexb / no-aud / no-hrd / info / hash=0 / no-temporal-layers / open-gop / min-keyint=1 / keyint=360 / gop-lookahead=0 / bframes=16 / b-adapt=2 / b-pyramid / bframe-bias=0 / rc-lookahead=72 / lookahead-slices=4 / scenecut=40 / hist-scenecut=0 / radl=0 / no-splice / no-intra-refresh / ctu=32 / min-cu-size=8 / rect / amp / max-tu-size=32 / tu-inter-depth=3 / tu-intra-depth=3 / limit-tu=4 / rdoq-level=2 / dynamic-rd=0.00 / no-ssim-rd / signhide / tskip / nr-intra=0 / nr-inter=0 / no-constrained-intra / strong-intra-smoothing / max-merge=5 / limit-refs=3 / limit-modes / me=3 / subme=7 / merange=57 / temporal-mvp / no-frame-dup / no-hme / weightp / weightb / analyze-src-pics / deblock=0:0 / no-sao / no-sao-non-deblock / rd=6 / selective-sao=0 / no-early-skip / rskip / no-fast-intra / no-tskip-fast / no-cu-lossless / b-intra / no-splitrd-skip / rdpenalty=0 / psy-rd=2.00 / psy-rdoq=2.00 / no-rd-refine / no-lossless / cbqpoffs=-2 / crqpoffs=-2 / rc=crf / crf=16.0 / qcomp=0.72 / qpstep=4 / stats-write=0 / stats-read=0 / vbv-maxrate=20000 / vbv-bufsize=40000 / vbv-init=0.9 / min-vbv-fullness=50.0 / max-vbv-fullness=80.0 / crf-max=0.0 / crf-min=0.0 / ipratio=1.40 / pbratio=1.30 / aq-mode=3 / aq-strength=0.85 / cutree / zone-count=0 / no-strict-cbr / qg-size=32 / no-rc-grain / qpmax=69 / qpmin=0 / no-const-vbv / sar=1 / overscan=0 / videoformat=5 / range=0 / colorprim=1 / transfer=1 / colormatrix=1 / chromaloc=0 / display-window=0 / cll=0,0 / min-luma=0 / max-luma=1023 / log2-max-poc-lsb=8 / vui-timing-info / vui-hrd-info / slices=1 / no-opt-qp-pps / no-opt-ref-list-length-pps / no-multi-pass-opt-rps / scenecut-bias=0.05 / hist-threshold=0.03 / no-opt-cu-delta-qp / no-aq-motion / no-hdr10 / no-hdr10-opt / no-dhdr10-opt / no-idr-recovery-sei / analysis-reuse-level=0 / analysis-save-reuse-level=0 / analysis-load-reuse-level=0 / scale-factor=0 / refine-intra=0 / refine-inter=0 / refine-mv=1 / refine-ctu-distortion=0 / no-limit-sao / ctu-info=0 / no-lowpass-dct / refine-analysis-type=0 / copy-pic=1 / max-ausize-factor=1.0 / no-dynamic-refine / no-single-sei / no-hevc-aq / no-svt / no-field / qp-adaptation-range=1.00 / scenecut-aware-qp=0conformance-window-offsets / right=0 / bottom=0 / decoder-max-rate=0 / no-vbv-live-multi-pass Language : Japanese Default : Yes Forced : No Color range : Limited Color primaries : BT.709 Transfer characteristics : BT.709 Matrix coefficients : BT.709 Audio #1 ID : 2 Format : FLAC Format/Info : Free Lossless Audio Codec Codec ID : A_FLAC Duration : 23 min 46 s Bit rate mode : Variable Bit rate : 556 kb/s Channel(s) : 2 channels Channel layout : L R Sampling rate : 48.0 kHz Frame rate : 10.417 FPS (4608 SPF) Bit depth : 16 bits Compression mode : Lossless Stream size : 94.5 MiB (16%) Title : English FLAC 2.0 Writing library : Lavf60.16.100 Language : English Default : Yes Forced : No MD5 of the unencoded content : 4135D5DE6E3ED5DC65768A07E66D94B9 Audio #2 ID : 3 Format : FLAC Format/Info : Free Lossless Audio Codec Codec ID : A_FLAC Duration : 23 min 48 s Bit rate mode : Variable Bit rate : 547 kb/s Channel(s) : 2 channels Channel layout : L R Sampling rate : 48.0 kHz Frame rate : 10.417 FPS (4608 SPF) Bit depth : 16 bits Compression mode : Lossless Stream size : 93.0 MiB (15%) Title : Japanese FLAC 2.0 Writing library : Lavf60.16.100 Language : Japanese Default : Yes Forced : No MD5 of the unencoded content : 1E84606612BE099E3323F2B796B8A11D Text #1 ID : 4 Format : ASS Codec ID : S_TEXT/ASS Codec ID/Info : Advanced Sub Station Alpha Duration : 21 min 21 s Bit rate : 29.4 kb/s Frame rate : 16.655 FPS Count of elements : 21347 Compression mode : Lossless Stream size : 4.48 MiB (1%) Title : Signs & Songs [Kametsu] Language : English Default : Yes Forced : Yes Text #2 ID : 5 Format : ASS Codec ID : S_TEXT/ASS Codec ID/Info : Advanced Sub Station Alpha Duration : 22 min 52 s Bit rate : 27.5 kb/s Frame rate : 15.797 FPS Count of elements : 21682 Compression mode : Lossless Stream size : 4.50 MiB (1%) Title : Full Subtitles [GJM modified] Language : Japanese Default : No Forced : No Menu 00:00:00.000 : Prologue 00:02:24.353 : Opening 00:04:06.997 : Part A 00:10:02.018 : Part B 00:14:43.049 : Part C 00:22:10.037 : Ending 00:23:31.076 : Preview ``` Dead end for a sucker that’s a sucker like me. 私のようなカモの行き止まりです。

File list

  • Tanaka-kun.Is.Always.Listless.S01.1080p.BluRay.10-Bit.Dual-Audio.FLAC2.0.x265-YURASUKA
    • Tanaka-kun.Is.Always.Listless.S01E01.1080p.BluRay.10-Bit.Dual-Audio.FLAC2.0.x265-YURASUKA.mkv (606.0 MiB)
    • Tanaka-kun.Is.Always.Listless.S01E02.1080p.BluRay.10-Bit.Dual-Audio.FLAC2.0.x265-YURASUKA.mkv (602.8 MiB)
    • Tanaka-kun.Is.Always.Listless.S01E03.1080p.BluRay.10-Bit.Dual-Audio.FLAC2.0.x265-YURASUKA.mkv (647.6 MiB)
    • Tanaka-kun.Is.Always.Listless.S01E04.1080p.BluRay.10-Bit.Dual-Audio.FLAC2.0.x265-YURASUKA.mkv (607.6 MiB)
    • Tanaka-kun.Is.Always.Listless.S01E05.1080p.BluRay.10-Bit.Dual-Audio.FLAC2.0.x265-YURASUKA.mkv (667.1 MiB)
    • Tanaka-kun.Is.Always.Listless.S01E06.1080p.BluRay.10-Bit.Dual-Audio.FLAC2.0.x265-YURASUKA.mkv (700.4 MiB)
    • Tanaka-kun.Is.Always.Listless.S01E07.1080p.BluRay.10-Bit.Dual-Audio.FLAC2.0.x265-YURASUKA.mkv (558.6 MiB)
    • Tanaka-kun.Is.Always.Listless.S01E08.1080p.BluRay.10-Bit.Dual-Audio.FLAC2.0.x265-YURASUKA.mkv (587.0 MiB)
    • Tanaka-kun.Is.Always.Listless.S01E09.1080p.BluRay.10-Bit.Dual-Audio.FLAC2.0.x265-YURASUKA.mkv (587.0 MiB)
    • Tanaka-kun.Is.Always.Listless.S01E10.1080p.BluRay.10-Bit.Dual-Audio.FLAC2.0.x265-YURASUKA.mkv (722.6 MiB)
    • Tanaka-kun.Is.Always.Listless.S01E11.1080p.BluRay.10-Bit.Dual-Audio.FLAC2.0.x265-YURASUKA.mkv (587.4 MiB)
    • Tanaka-kun.Is.Always.Listless.S01E12.1080p.BluRay.10-Bit.Dual-Audio.FLAC2.0.x265-YURASUKA.mkv (520.6 MiB)