[neoDESU] Farming Life in Another World [Season 1] [BD 1080p x265 HEVC OPUS] [Dual Audio] Isekai Nonbiri Nouka

Category:
Date:
2024-01-06 16:03 UTC
Submitter:
Seeders:
35
Information:
Leechers:
3
File size:
3.1 GiB
Completed:
1838
Info hash:
1ca9b348c7cf7351eb7d3cca639fddfe19eac670
![](https://i.lensdump.com/i/6BKULK.png) *Come hang out in **[Discord](https://discord.gg/47Q7FdB54e)*** #### **[Farming Life in Another World [Season 1]](https://myanimelist.net/anime/51462/Isekai_Nonbiri_Nouka)** ▶️ **[Trailer](https://www.youtube.com/watch?v=ltMQr2tb2wM)** --- **Notes:** . Cut BD credits *from [DiabloTripleA]* . Subtitles sourced from HiDive . Restyled script and changed fonts . Created styled OP & ED . Created signs TS --- **Synopsis** During the final years of his life, Hiraku Machio remained confined to a hospital bed with a terminal illness until he finally passed away. Taking pity on the unfair life he lived, a god decides to reincarnate Hiraku in another world where he can live as he pleases. Wanting to try farming in this new life, he is bestowed with an all-in-one "Almighty Farming Tool" that can transform into any useful implement he wishes. Hiraku is then transported to a forest seemingly far from civilization. Here, he plans to build and farm everything from scratch—gradually developing the lifeless area into a thriving new society. ![](https://c.l3n.co/i/3yfw2a.png) --- **Language Options** I included two simple scripts that you can apply to these files to do the following (Windows only): 1. Make [Single Audio] Japanese: Throws out *English audio* and *Signs&Songs subtitles* tracks 2. Make [Single Audio] English: Throws out *Japanese audio* and *Dialogue subtitles* tracks To apply these put all the video files into the *Language Options* folder and run the .bat file. *Don't combine them and only use them once together with the base files.* --- **Source** 🗃️ Video and Audio (US BDMV): **[zanros]** 🗃️ Subtitles Info: **[DiabloTripleA]** *Thank you all for making this possible <3* --- **Media Info** 🆔 **[Full Mediainfo incl. Encoder Settings](https://pastebin.com/BxYmF8LC)** ``` General Unique ID : 121752205747671373499481833767589013658 (0x5B989F33D1F910458D5B97D61BFA689A) Complete name : Farming Life in Another World - S01E01.mkv Format : Matroska Format version : Version 4 File size : 307 MiB Duration : 23 min 51 s Overall bit rate : 1 800 kb/s Encoded date : UTC 2024-01-06 11:42:52 Writing application : Lavf59.16.100 Writing library : Lavf59.16.100 ErrorDetectionType : Per level 1 Attachments : arialbd.ttf / ARIALBD_0.TTF / Brush Japanese_hunRegular.ttf / BrushType Normal.ttf / CAC MOOSE.TTF / Dimbo Regular.ttf / Dosis-Bold.ttf / FOT-ROCKNROLLSTDDB.TTF / FromWhereYouAre.ttf / Iwata Mincho Old Pro H-Fate.ttf / IWATAMINCHOOLDPROH-TR.TTF / KBCloudyDay.ttf / LEHN010.TTF / LEHN015.TTF / LT.ttf / Mikadan Regular.ttf / Polo.ttf / quadrat-regulareclipse.ttf / Rosario-Bold.ttf / Rosario-BoldItalic.ttf / Swis721_BT_Bold.ttf / Brush Brezz.otf / CarrefourMetis-Bold.otf / CerigoStd-Medium.otf / CTMERCURIUSSTD-MEDIUM.OTF Video ID : 1 Format : HEVC Format/Info : High Efficiency Video Coding Format profile : Main 10@L4@High Codec ID : V_MPEGH/ISO/HEVC Duration : 23 min 51 s Bit rate : 1 465 kb/s Width : 1 920 pixels Height : 1 080 pixels Display aspect ratio : 16:9 Frame rate mode : Variable Frame rate : 24.834 FPS Original frame rate : 23.976 (24000/1001) FPS Color space : YUV Chroma subsampling : 4:2:0 Bit depth : 10 bits Bits/(Pixel*Frame) : 0.028 Stream size : 259 MiB (84%) Writing library : x265 3.5+37+12-4e46995bc:[Windows][MSVC 1931][64 bit] 10bit Encoding settings : <Check Link Above> Default : Yes Forced : No Color range : Limited Audio #1 ID : 2 Format : Opus Codec ID : A_OPUS Duration : 23 min 50 s Bit rate : 127 kb/s Channel(s) : 2 channels Channel layout : L R Sampling rate : 48.0 kHz Frame rate : 50.068 FPS (959 SPF) Bit depth : 32 bits Compression mode : Lossy Delay relative to video : -7 ms Stream size : 21.6 MiB (7%) Title : English Writing library : Lavc60.3.100 libopus Language : English Default : Yes Forced : No Audio #2 ID : 3 Format : Opus Codec ID : A_OPUS Duration : 23 min 50 s Bit rate : 127 kb/s Channel(s) : 2 channels Channel layout : L R Sampling rate : 48.0 kHz Frame rate : 50.068 FPS (959 SPF) Bit depth : 32 bits Compression mode : Lossy Delay relative to video : -7 ms Stream size : 21.7 MiB (7%) Title : Japanese Writing library : Lavc60.3.100 libopus Language : Japanese Default : No Forced : No Text #1 ID : 4 Format : ASS Codec ID : S_TEXT/ASS Codec ID/Info : Advanced Sub Station Alpha Duration : 23 min 50 s Bit rate : 1 628 b/s Frame rate : 1.331 FPS Count of elements : 1904 Compression mode : Lossless Stream size : 250 KiB (0%) Title : Signs & Songs Language : English Default : No Forced : Yes Text #2 ID : 5 Format : ASS Codec ID : S_TEXT/ASS Codec ID/Info : Advanced Sub Station Alpha Duration : 23 min 50 s Bit rate : 1 600 b/s Frame rate : 1.592 FPS Count of elements : 2277 Compression mode : Lossless Stream size : 275 KiB (0%) Title : Dialogue Language : English Default : Yes Forced : No Menu 00:00:00.007 : :Intro 00:02:44.567 : :OP 00:04:14.537 : :Episode 00:22:28.457 : :ED 00:23:17.507 : :Outro 00:23:45.497 : :Preview ```

File list

  • [neoDESU] Farming Life in Another World [Season 1] [BD 1080p x265 HEVC OPUS] [Dual Audio]
    • Language Options
      • 1. Make [Single Audio] English.bat (254 Bytes)
      • 2. Make [Single Audio] Japanese.bat (254 Bytes)
      • mkvmerge.exe (9.6 MiB)
      • readme.txt (511 Bytes)
    • Farming Life in Another World - S01E01.mkv (307.1 MiB)
    • Farming Life in Another World - S01E02.mkv (276.5 MiB)
    • Farming Life in Another World - S01E03.mkv (256.2 MiB)
    • Farming Life in Another World - S01E04.mkv (291.8 MiB)
    • Farming Life in Another World - S01E05.mkv (289.6 MiB)
    • Farming Life in Another World - S01E06.mkv (287.5 MiB)
    • Farming Life in Another World - S01E07.mkv (226.5 MiB)
    • Farming Life in Another World - S01E08.mkv (243.2 MiB)
    • Farming Life in Another World - S01E09.mkv (239.1 MiB)
    • Farming Life in Another World - S01E10.mkv (251.2 MiB)
    • Farming Life in Another World - S01E11.mkv (252.3 MiB)
    • Farming Life in Another World - S01E12.mkv (228.3 MiB)
Farming Life in another world. FARMING LIFE in another world!!!
Please also add Bastard!! from blueray version in dual audio uncensored
Been looking for a flawless dual audio BD version. Neo is the one to get!