[neoDESU] TenPuru - No One Can Live on Loneliness [Season 1 + Specials] [BD 1080p x265 HEVC OPUS AAC] [Dual Audio] Temple

Category:
Date:
2024-01-06 16:02 UTC
Submitter:
Seeders:
11
Information:
Leechers:
0
File size:
3.6 GiB
Completed:
1081
Info hash:
4e8fa0145514510fec030113f7279ab6da3fab2b
![](https://i.lensdump.com/i/6BKULK.png) *Come hang out in **[Discord](https://discord.gg/47Q7FdB54e)*** #### **[TenPuru: No One Can Live on Loneliness [Season 1]](https://myanimelist.net/anime/54275/Temple)** #### **[TenPuru: No One Can Live on Loneliness Specials [Special]](https://myanimelist.net/anime/56741/Temple_Specials)** โ–ถ๏ธ **[Trailer](https://www.youtube.com/watch?v=OaPFYflblQU)** --- **Synopsis** From a young age, Akemitsu Akagami was taught by his father that people can never live alone. But underneath the seemingly prudent advice lies a truth that corrupts itโ€”sons of the Akagami lineage are infamous for being heinous playboys. Determined to clear the notoriety of his family name, Akemitsu keeps his distance from girls throughout his life, only to become a victim of his bloodline's instincts, as he falls in love at first sight. In a last-ditch effort to rid himself of these desires, Akemitsu travels to a nearby temple in hopes of receiving Buddhist training. However, chaos ensues when the girl he had fallen for greets him at the door. After the commotion settles, he discovers the temple is actually a nunnery from which his father had borrowed millions before fleeing. Now working at the nunnery to repay the outstanding debts, Akemitsu tries his best to compose himself and stay celibate while being surrounded by lovely girls of all kinds. ![](https://b.l3n.co/i/3yPu4K.png) --- **Language Options** I included two simple scripts that you can apply to these files to do the following (Windows only): 1. Make [Single Audio] Japanese: Throws out *English audio* and *Signs&Songs subtitles* tracks 2. Make [Single Audio] English: Throws out *Japanese audio* and *Dialogue subtitles* tracks To apply these put all the video files into the *Language Options* folder and run the .bat file. *Don't combine them and only use them once together with the base files.* --- **Source** ๐Ÿ—ƒ๏ธ Video and JPN Audio (JPN BDMV): **[[Lupin the Nerd]](https://nyaa.si/view/1738128)** ๐Ÿ—ƒ๏ธ ENG Audio (WEB): **[[Yameii]](https://nyaa.si/view/1696031)** ๐Ÿ—ƒ๏ธ Subtitles: **[[GHS]](https://nyaa.si/view/1762572)** ๐Ÿ’ฌ *Subtitles Info: [GHS]* *Thank you all for making this possible <3* --- **Media Info** ๐Ÿ†” **[Full Mediainfo incl. Encoder Settings](https://pastebin.com/VPSEBiZa)** ``` General Unique ID : 221247177324978582785752119028297745058 (0xA672A80950981E79A29E3454D1E3C2A2) Complete name : TenPuru - No One Can Live on Loneliness - S01E01.mkv Format : Matroska Format version : Version 4 File size : 281 MiB Duration : 24 min 2 s Overall bit rate : 1 637 kb/s Encoded date : UTC 2024-01-04 19:26:55 Writing application : mkvmerge v72.0.0 ('Minuano (Six-eight)') 64-bit Writing library : libebml v1.4.4 + libmatroska v1.7.1 Attachments : AmeryBrush.otf / aprifa.ttf / arial.ttf / arialbd.ttf / Cloudy With a Chance of Love.ttf / ClubTypeMercuriusMedium.ttf / CM Big Fat Paintbrush.ttf / COMICMYSTERYSTD-DB.OTF / constan.ttf / FOT-GospelStd-EB.otf / GandhiSans-Bold.otf / GandhiSans-BoldItalic.otf / GosmickSans.ttf / grain.ttf / KGMissKindergarten.ttf / LeviReBrushed.ttf / OLD NEWSPAPER FONT.TTF / OldNewspaperTypes.ttf / second breakfast.ttf / WILDBRUSH.ttf Video ID : 1 Format : HEVC Format/Info : High Efficiency Video Coding Format profile : Main 10@L4@High Codec ID : V_MPEGH/ISO/HEVC Duration : 24 min 2 s Bit rate : 1 227 kb/s Width : 1 920 pixels Height : 1 080 pixels Display aspect ratio : 16:9 Frame rate mode : Constant Frame rate : 23.976 (24000/1001) FPS Color space : YUV Chroma subsampling : 4:2:0 Bit depth : 10 bits Bits/(Pixel*Frame) : 0.025 Stream size : 211 MiB (75%) Writing library : x265 3.5+37+12-4e46995bc:[Windows][MSVC 1931][64 bit] 10bit Encoding settings : <Check Link Above> Default : Yes Forced : No Audio #1 ID : 2 Format : AAC LC Format/Info : Advanced Audio Codec Low Complexity Codec ID : A_AAC-2 Duration : 24 min 1 s Bit rate : 128 kb/s Channel(s) : 2 channels Channel layout : L R Sampling rate : 44.1 kHz Frame rate : 43.066 FPS (1024 SPF) Compression mode : Lossy Stream size : 22.0 MiB (8%) Title : English Language : English Default : Yes Forced : No Audio #2 ID : 3 Format : Opus Codec ID : A_OPUS Duration : 24 min 2 s Bit rate : 125 kb/s Channel(s) : 2 channels Channel layout : L R Sampling rate : 48.0 kHz Frame rate : 50.000 FPS (960 SPF) Bit depth : 16 bits Compression mode : Lossy Stream size : 21.4 MiB (8%) Title : Japanese Language : Japanese Default : No Forced : No Text #1 ID : 4 Format : ASS Codec ID : S_TEXT/ASS Codec ID/Info : Advanced Sub Station Alpha Duration : 23 min 6 s Bit rate : 33.2 kb/s Frame rate : 0.860 FPS Count of elements : 1193 Compression mode : Lossless Stream size : 5.49 MiB (2%) Title : Signs & Songs Language : English Default : No Forced : Yes Text #2 ID : 5 Format : ASS Codec ID : S_TEXT/ASS Codec ID/Info : Advanced Sub Station Alpha Duration : 23 min 58 s Bit rate : 32.1 kb/s Frame rate : 1.064 FPS Count of elements : 1531 Compression mode : Lossless Stream size : 5.51 MiB (2%) Title : Dialogue Language : English Default : Yes Forced : No Menu 00:00:00.000 : en:Intro 00:00:54.054 : en:OP 00:02:24.019 : en:Part A 00:10:11.027 : en:Part B 00:22:16.043 : en:ED 00:23:46.008 : en:Preview ```

File list

  • [neoDESU] TenPuru - No One Can Live on Loneliness [Season 1 + Specials] [BD 1080p x265 HEVC OPUS AAC] [Dual Audio]
    • Language Options
      • 1. Make [Single Audio] English.bat (254 Bytes)
      • 2. Make [Single Audio] Japanese.bat (254 Bytes)
      • mkvmerge.exe (9.6 MiB)
      • readme.txt (511 Bytes)
    • Season 1
      • TenPuru - No One Can Live on Loneliness - S01E01.mkv (281.5 MiB)
      • TenPuru - No One Can Live on Loneliness - S01E02.mkv (233.3 MiB)
      • TenPuru - No One Can Live on Loneliness - S01E03.mkv (456.7 MiB)
      • TenPuru - No One Can Live on Loneliness - S01E04.mkv (231.0 MiB)
      • TenPuru - No One Can Live on Loneliness - S01E05.mkv (197.1 MiB)
      • TenPuru - No One Can Live on Loneliness - S01E06.mkv (255.9 MiB)
      • TenPuru - No One Can Live on Loneliness - S01E07.mkv (274.8 MiB)
      • TenPuru - No One Can Live on Loneliness - S01E08.mkv (358.9 MiB)
      • TenPuru - No One Can Live on Loneliness - S01E09.mkv (296.8 MiB)
      • TenPuru - No One Can Live on Loneliness - S01E10.mkv (223.4 MiB)
      • TenPuru - No One Can Live on Loneliness - S01E11.mkv (228.5 MiB)
      • TenPuru - No One Can Live on Loneliness - S01E12.mkv (249.0 MiB)
    • Specials
      • TenPuru - No One Can Live on Loneliness - S00E01 - [S01S01 Special 1].mkv (154.1 MiB)
      • TenPuru - No One Can Live on Loneliness - S00E02 - [S01S02 Special 2].mkv (190.0 MiB)
are the specials dubbed as well ?
[@JoeGP](https://animetosho.org/file/specials-tenpuru-no-one-live-loneliness-s00e01-s01s01.1132877)
Sadly, less pantyhose in the show than one might think with this preview. :( Big thanks anyway!