Skip.and.Loafer.S01.1080p.BluRay.10-Bit.FLAC2.0.x265-YURASUKA (Skip to Loafer)

Category:
Date:
2024-01-06 07:36 UTC
Submitter:
Seeders:
32
Information:
Leechers:
0
File size:
9.7 GiB
Completed:
1225
Info hash:
5904b5f717e91b104ca73f39c001c116237bb0fa
Skip and Loafer / Skip to Loafer (2023) A/V Source: Ronny@U2 (JPBD) Subtitles Source: [neoDESU@Nyaa](https://nyaa.si/view/1710882) (Crunchyroll) [Zedjones OP/Flower ED] [Encode Comparison](https://slow.pics/c/yi1XMSNi) ``` Complete name : Skip.and.Loafer.S01E05.1080p.BluRay.10-Bit.FLAC2.0.x265-YURASUKA.mkv Format : Matroska Format version : Version 4 File size : 824 MiB Duration : 23 min 40 s Overall bit rate mode : Variable Overall bit rate : 4 868 kb/s Frame rate : 23.976 FPS Movie name : Skip and Loafer - S01E05 - YURASUKA Encoded date : 2024-01-06 07:11:55 UTC Writing application : mkvmerge v82.0 ('I'm The President') 64-bit Writing library : libebml v1.4.5 + libmatroska v1.7.1 Attachments : anna.ttf / arial-Bold.TTF / ArialBlack.TTF / ComicSansMs-Bold.TTF / georgia-Bold.TTF / georgia.TTF / TimesNewRoman-Bold.TTF / Fot-つばめStdR.otf / GandhiSans-Bold.OTF / GandhiSans-BoldItalic.OTF Video ID : 1 Format : HEVC Format/Info : High Efficiency Video Coding Format profile : Main 10@L5@High Codec ID : V_MPEGH/ISO/HEVC Duration : 23 min 40 s Bit rate : 4 172 kb/s Width : 1 920 pixels Height : 1 080 pixels Display aspect ratio : 16:9 Frame rate mode : Constant Frame rate : 23.976 (24000/1001) FPS Color space : YUV Chroma subsampling : 4:2:0 Bit depth : 10 bits Bits/(Pixel*Frame) : 0.084 Stream size : 706 MiB (86%) Title : YURASUKA 1080p x265 Writing library : x265 3.5:[Linux][GCC 11.2.0][64 bit] 10bit Encoding settings : cpuid=1111039 / frame-threads=5 / numa-pools=32 / wpp / no-pmode / no-pme / no-psnr / no-ssim / log-level=2 / input-csp=1 / input-res=1920x1080 / interlace=0 / total-frames=0 / level-idc=0 / high-tier=1 / uhd-bd=0 / ref=6 / no-allow-non-conformance / no-repeat-headers / annexb / no-aud / no-hrd / info / hash=0 / no-temporal-layers / open-gop / min-keyint=1 / keyint=360 / gop-lookahead=0 / bframes=16 / b-adapt=2 / b-pyramid / bframe-bias=0 / rc-lookahead=72 / lookahead-slices=4 / scenecut=40 / hist-scenecut=0 / radl=0 / no-splice / no-intra-refresh / ctu=32 / min-cu-size=8 / rect / amp / max-tu-size=32 / tu-inter-depth=3 / tu-intra-depth=3 / limit-tu=4 / rdoq-level=2 / dynamic-rd=0.00 / no-ssim-rd / signhide / tskip / nr-intra=0 / nr-inter=0 / no-constrained-intra / strong-intra-smoothing / max-merge=5 / limit-refs=3 / limit-modes / me=3 / subme=7 / merange=57 / temporal-mvp / no-frame-dup / no-hme / weightp / weightb / analyze-src-pics / deblock=0:0 / no-sao / no-sao-non-deblock / rd=6 / selective-sao=0 / no-early-skip / rskip / no-fast-intra / no-tskip-fast / no-cu-lossless / b-intra / no-splitrd-skip / rdpenalty=0 / psy-rd=2.00 / psy-rdoq=2.00 / no-rd-refine / no-lossless / cbqpoffs=-2 / crqpoffs=-2 / rc=crf / crf=16.0 / qcomp=0.72 / qpstep=4 / stats-write=0 / stats-read=0 / vbv-maxrate=20000 / vbv-bufsize=40000 / vbv-init=0.9 / min-vbv-fullness=50.0 / max-vbv-fullness=80.0 / crf-max=0.0 / crf-min=0.0 / ipratio=1.40 / pbratio=1.30 / aq-mode=3 / aq-strength=0.85 / cutree / zone-count=0 / no-strict-cbr / qg-size=32 / no-rc-grain / qpmax=69 / qpmin=0 / no-const-vbv / sar=1 / overscan=0 / videoformat=5 / range=0 / colorprim=1 / transfer=1 / colormatrix=1 / chromaloc=0 / display-window=0 / cll=0,0 / min-luma=0 / max-luma=1023 / log2-max-poc-lsb=8 / vui-timing-info / vui-hrd-info / slices=1 / no-opt-qp-pps / no-opt-ref-list-length-pps / no-multi-pass-opt-rps / scenecut-bias=0.05 / hist-threshold=0.03 / no-opt-cu-delta-qp / no-aq-motion / no-hdr10 / no-hdr10-opt / no-dhdr10-opt / no-idr-recovery-sei / analysis-reuse-level=0 / analysis-save-reuse-level=0 / analysis-load-reuse-level=0 / scale-factor=0 / refine-intra=0 / refine-inter=0 / refine-mv=1 / refine-ctu-distortion=0 / no-limit-sao / ctu-info=0 / no-lowpass-dct / refine-analysis-type=0 / copy-pic=1 / max-ausize-factor=1.0 / no-dynamic-refine / no-single-sei / no-hevc-aq / no-svt / no-field / qp-adaptation-range=1.00 / scenecut-aware-qp=0conformance-window-offsets / right=0 / bottom=0 / decoder-max-rate=0 / no-vbv-live-multi-pass Language : Japanese Default : Yes Forced : No Color range : Limited Color primaries : BT.709 Transfer characteristics : BT.709 Matrix coefficients : BT.709 Audio ID : 2 Format : FLAC Format/Info : Free Lossless Audio Codec Codec ID : A_FLAC Duration : 23 min 40 s Bit rate mode : Variable Bit rate : 646 kb/s Channel(s) : 2 channels Channel layout : L R Sampling rate : 48.0 kHz Frame rate : 10.417 FPS (4608 SPF) Bit depth : 16 bits Compression mode : Lossless Stream size : 109 MiB (13%) Title : Japanese FLAC 2.0 Writing library : Lavf60.16.100 Language : Japanese Default : Yes Forced : No MD5 of the unencoded content : D0317DFBEE6B72E3355851F432DA3F20 Text ID : 3 Format : ASS Codec ID : S_TEXT/ASS Codec ID/Info : Advanced Sub Station Alpha Duration : 23 min 36 s Bit rate : 221 b/s Frame rate : 0.357 FPS Count of elements : 506 Compression mode : Lossless Stream size : 38.3 KiB (0%) Title : English Subtitles Language : English Default : Yes Forced : No Menu 00:00:00.000 : ja:Prologue 00:01:17.995 : ja:Opening 00:02:48.043 : ja:Part A 00:12:24.035 : ja:Part B 00:22:10.037 : ja:Ending ``` Dead end for a sucker that’s a sucker like me. 私のようなカモの行き止まりです。

File list

  • Skip.and.Loafer.S01.1080p.BluRay.10-Bit.FLAC2.0.x265-YURASUKA
    • Skip.and.Loafer.S01E01.1080p.BluRay.10-Bit.FLAC2.0.x265-YURASUKA.mkv (883.3 MiB)
    • Skip.and.Loafer.S01E02.1080p.BluRay.10-Bit.FLAC2.0.x265-YURASUKA.mkv (795.9 MiB)
    • Skip.and.Loafer.S01E03.1080p.BluRay.10-Bit.FLAC2.0.x265-YURASUKA.mkv (835.9 MiB)
    • Skip.and.Loafer.S01E04.1080p.BluRay.10-Bit.FLAC2.0.x265-YURASUKA.mkv (807.5 MiB)
    • Skip.and.Loafer.S01E05.1080p.BluRay.10-Bit.FLAC2.0.x265-YURASUKA.mkv (824.1 MiB)
    • Skip.and.Loafer.S01E06.1080p.BluRay.10-Bit.FLAC2.0.x265-YURASUKA.mkv (718.0 MiB)
    • Skip.and.Loafer.S01E07.1080p.BluRay.10-Bit.FLAC2.0.x265-YURASUKA.mkv (796.4 MiB)
    • Skip.and.Loafer.S01E08.1080p.BluRay.10-Bit.FLAC2.0.x265-YURASUKA.mkv (763.9 MiB)
    • Skip.and.Loafer.S01E09.1080p.BluRay.10-Bit.FLAC2.0.x265-YURASUKA.mkv (878.4 MiB)
    • Skip.and.Loafer.S01E10.1080p.BluRay.10-Bit.FLAC2.0.x265-YURASUKA.mkv (964.8 MiB)
    • Skip.and.Loafer.S01E11.1080p.BluRay.10-Bit.FLAC2.0.x265-YURASUKA.mkv (862.8 MiB)
    • Skip.and.Loafer.S01E12.1080p.BluRay.10-Bit.FLAC2.0.x265-YURASUKA.mkv (818.5 MiB)