Sword.Art.Online.The.Movie.Progressive.Scherzo.of.Deep.Night.2022.1080p.Blu-Ray.10-Bit.Dual-Audio.TrueHD.x265-iAHD.mkv

Category:
Date:
2023-12-30 22:24 UTC
Submitter:
Seeders:
7
Information:
No information.
Leechers:
0
File size:
10.1 GiB
Completed:
947
Info hash:
00f9b9ba5fabeffd99bec347e8796ab02a0d4045
Video ID : 1 Format : HEVC Format/Info : High Efficiency Video Coding Format profile : Main 10@L5@Main Codec ID : V_MPEGH/ISO/HEVC Duration : 1 h 40 min Bit rate : 7 833 kb/s Width : 1 920 pixels Height : 1 080 pixels Display aspect ratio : 16:9 Frame rate mode : Constant Frame rate : 23.976 (24000/1001) FPS Color space : YUV Chroma subsampling : 4:2:0 (Type 0) Bit depth : 10 bits Bits/(Pixel*Frame) : 0.158 Stream size : 5.52 GiB (55%) Writing library : x265 3.5+1-f0c1022b6:[Mac OS X][clang 14.0.3][64 bit] 10bit Encoding settings : cpuid=2 / frame-threads=16 / wpp / no-pmode / no-pme / no-psnr / no-ssim / log-level=2 / input-csp=1 / input-res=1920x1080 / interlace=0 / total-frames=0 / level-idc=0 / high-tier=1 / uhd-bd=0 / ref=6 / no-allow-non-conformance / no-repeat-headers / annexb / no-aud / no-eob / no-eos / no-hrd / info / hash=0 / temporal-layers=0 / open-gop / min-keyint=24 / keyint=240 / gop-lookahead=0 / bframes=16 / b-adapt=2 / b-pyramid / bframe-bias=0 / rc-lookahead=50 / lookahead-slices=4 / scenecut=40 / no-hist-scenecut / radl=0 / no-splice / no-intra-refresh / ctu=32 / min-cu-size=8 / no-rect / no-amp / max-tu-size=32 / tu-inter-depth=1 / tu-intra-depth=3 / limit-tu=0 / rdoq-level=2 / dynamic-rd=0.00 / no-ssim-rd / signhide / tskip / nr-intra=0 / nr-inter=0 / no-constrained-intra / no-strong-intra-smoothing / max-merge=3 / limit-refs=3 / limit-modes / me=3 / subme=3 / merange=57 / temporal-mvp / no-frame-dup / no-hme / weightp / no-weightb / no-analyze-src-pics / deblock=1:1 / no-sao / no-sao-non-deblock / rd=4 / selective-sao=0 / no-early-skip / rskip / no-fast-intra / tskip-fast / no-cu-lossless / no-b-intra / no-splitrd-skip / rdpenalty=0 / psy-rd=0.80 / psy-rdoq=2.00 / no-rd-refine / no-lossless / cbqpoffs=0 / crqpoffs=0 / rc=crf / crf=16.0 / qcomp=0.60 / qpstep=4 / stats-write=0 / stats-read=0 / ipratio=1.40 / pbratio=1.30 / aq-mode=3 / aq-strength=1.25 / cutree / zone-count=0 / no-strict-cbr / qg-size=32 / no-rc-grain / qpmax=69 / qpmin=0 / no-const-vbv / sar=1 / overscan=0 / videoformat=5 / range=0 / colorprim=1 / transfer=1 / colormatrix=1 / chromaloc=1 / chromaloc-top=0 / chromaloc-bottom=0 / display-window=0 / cll=0,0 / min-luma=0 / max-luma=1023 / log2-max-poc-lsb=8 / vui-timing-info / vui-hrd-info / slices=1 / no-opt-qp-pps / no-opt-ref-list-length-pps / no-multi-pass-opt-rps / scenecut-bias=0.05 / no-opt-cu-delta-qp / no-aq-motion / no-hdr10 / no-hdr10-opt / no-dhdr10-opt / no-idr-recovery-sei / analysis-reuse-level=0 / analysis-save-reuse-level=0 / analysis-load-reuse-level=0 / scale-factor=0 / refine-intra=0 / refine-inter=0 / refine-mv=1 / refine-ctu-distortion=0 / no-limit-sao / ctu-info=0 / no-lowpass-dct / refine-analysis-type=0 / copy-pic=1 / max-ausize-factor=1.0 / no-dynamic-refine / no-single-sei / no-hevc-aq / no-svt / no-field / qp-adaptation-range=1.00 / scenecut-aware-qp=0conformance-window-offsets / right=0 / bottom=0 / decoder-max-rate=0 / no-vbv-live-multi-pass / no-mcstf / no-sbrc Language : Japanese Default : Yes Forced : No Color range : Limited Color primaries : BT.709 Transfer characteristics : BT.709 Matrix coefficients : BT.709 Audio #1 ID : 2 Format : MLP FBA Format/Info : Meridian Lossless Packing FBA Commercial name : Dolby TrueHD Codec ID : A_TRUEHD Duration : 1 h 40 min Bit rate mode : Variable Bit rate : 3 249 kb/s Maximum bit rate : 5 190 kb/s Channel(s) : 6 channels Channel layout : L R C LFE Ls Rs Sampling rate : 48.0 kHz Frame rate : 1 200.000 FPS (40 SPF) Compression mode : Lossless Stream size : 2.29 GiB (23%) Language : English Default : Yes Forced : No Audio #2 ID : 3 Format : MLP FBA Format/Info : Meridian Lossless Packing FBA Commercial name : Dolby TrueHD Codec ID : A_TRUEHD Duration : 1 h 40 min Bit rate mode : Variable Bit rate : 3 082 kb/s Maximum bit rate : 5 172 kb/s Channel(s) : 6 channels Channel layout : L R C LFE Ls Rs Sampling rate : 48.0 kHz Frame rate : 1 200.000 FPS (40 SPF) Compression mode : Lossless Stream size : 2.17 GiB (22%) Language : Japanese Default : Yes Forced : No Text #1 ID : 4 Format : PGS Codec ID : S_HDMV/PGS Codec ID/Info : Picture based subtitle format used on BDs/HD-DVDs Duration : 1 h 32 min Bit rate : 722 b/s Frame rate : 0.007 FPS Count of elements : 41 Stream size : 492 KiB (0%) Title : Signs / Songs Language : English Default : Yes Forced : Yes Text #2 ID : 5 Format : PGS Codec ID : S_HDMV/PGS Codec ID/Info : Picture based subtitle format used on BDs/HD-DVDs Duration : 1 h 39 min Bit rate : 29.6 kb/s Frame rate : 0.347 FPS Count of elements : 2065 Stream size : 21.0 MiB (0%) Title : Dialogue Language : English Default : Yes Forced : No Menu 00:00:00.000 : en:Chapter 01 00:00:23.524 : en:Chapter 02 00:03:20.367 : en:Chapter 03 00:06:34.144 : en:Chapter 04 00:12:04.015 : en:Chapter 05 00:14:26.157 : en:Chapter 06 00:19:56.946 : en:Chapter 07 00:24:34.390 : en:Chapter 08 00:33:52.531 : en:Chapter 09 00:40:11.200 : en:Chapter 10 00:43:20.681 : en:Chapter 11 00:50:56.929 : en:Chapter 12 01:01:45.535 : en:Chapter 13 01:04:59.354 : en:Chapter 14 01:08:08.293 : en:Chapter 15 01:10:06.536 : en:Chapter 16 01:14:14.492 : en:Chapter 17 01:19:31.767 : en:Chapter 18 01:21:34.098 : en:Chapter 19 01:28:29.471 : en:Chapter 20 01:37:06.821 : en:Chapter 21

File list

  • Sword.Art.Online.The.Movie.Progressive.Scherzo.of.Deep.Night.2022.1080p.Blu-Ray.10-Bit.Dual-Audio.TrueHD.x265-iAHD.mkv (10.1 GiB)