[MagicStar] Fermat no Ryouri EP10 END [WEBDL] [1080p] [Netflix] [JPN_CHT_SUB]

Category:
Date:
2023-12-29 04:40 UTC
Submitter:
Seeders:
1
Information:
Leechers:
0
File size:
1.6 GiB
Completed:
323
Info hash:
441572dfc3293ef49b73a357aa4e3c1fe470a539
HD 1080p from Netflix. Japanese and Chinese subtitles added. ![alt text](https://i.ibb.co/7kPw2r7/240211.jpg) ![alt text](https://i.ibb.co/M5VWpct/Fermat-no-Ryouri-EP10-1080p-NF-WEB-DL-DDP2-0-H-264-Magic-Star-mkv.jpg) ``` General Unique ID : 166588620200536224844617102662217354306 (0x7D53CD1BB1D33C07301A7CD20D19CC42) Complete name : Fermat.no.Ryouri.EP10.1080p.NF.WEB-DL.DDP2.0.H.264-MagicStar.mkv Format : Matroska Format version : Version 4 File size : 1.60 GiB Duration : 44 min 44 s Overall bit rate mode : Variable Overall bit rate : 5 128 kb/s Frame rate : 29.970 FPS Encoded date : 2023-12-29 03:50:25 UTC Writing application : mkvmerge v50.0.0 ('Awakenings') 64-bit Writing library : libebml v1.4.0 + libmatroska v1.6.2 Cover : Yes Attachments : cover.png Video ID : 1 Format : AVC Format/Info : Advanced Video Codec Format profile : Main@L4 Format settings : CABAC / 3 Ref Frames Format settings, CABAC : Yes Format settings, Reference fra : 3 frames Codec ID : V_MPEG4/ISO/AVC Duration : 44 min 44 s Bit rate mode : Variable Bit rate : 5 000 kb/s Maximum bit rate : 7 500 kb/s Width : 1 920 pixels Height : 1 080 pixels Display aspect ratio : 16:9 Frame rate mode : Constant Frame rate : 29.970 (29970/1000) FPS Original frame rate : 29.970 (30000/1001) FPS Color space : YUV Chroma subsampling : 4:2:0 Bit depth : 8 bits Scan type : Progressive Bits/(Pixel*Frame) : 0.080 Stream size : 1.56 GiB (97%) Writing library : x264 core 148 r2727 7d026e8 Encoding settings : cabac=1 / ref=3 / deblock=1:0:0 / analyse=0x1:0x111 / me=umh / subme=10 / psy=1 / psy_rd=1.00:0.00 / mixed_ref=1 / me_range=24 / chroma_me=1 / trellis=2 / 8x8dct=0 / cqm=0 / deadzone=21,11 / fast_pskip=1 / chroma_qp_offset=-2 / threads=6 / lookahead_threads=1 / sliced_threads=0 / nr=0 / decimate=1 / interlaced=0 / bluray_compat=0 / stitchable=1 / constrained_intra=0 / bframes=2 / b_pyramid=0 / b_adapt=2 / b_bias=0 / direct=3 / weightb=1 / open_gop=0 / weightp=2 / keyint=300 / keyint_min=151 / scenecut=0 / intra_refresh=0 / rc_lookahead=60 / rc=2pass / mbtree=1 / bitrate=5000 / ratetol=1.0 / qcomp=0.50 / qpmin=6 / qpmax=51 / qpstep=4 / cplxblur=20.0 / qblur=0.5 / vbv_maxrate=7500 / vbv_bufsize=10000 / nal_hrd=vbr / filler=0 / ip_ratio=1.40 / aq=1:1.00 Default : Yes Forced : No Audio ID : 2 Format : E-AC-3 Format/Info : Enhanced AC-3 Commercial name : Dolby Digital Plus Codec ID : A_EAC3 Duration : 44 min 44 s Bit rate mode : Constant Bit rate : 128 kb/s Channel(s) : 2 channels Channel layout : L R Sampling rate : 48.0 kHz Frame rate : 31.250 FPS (1536 SPF) Compression mode : Lossy Stream size : 41.0 MiB (2%) Title : 日本語 [オリジナル] Language : Japanese Service kind : Complete Main Default : Yes Forced : No ```

File list