[neoDESU] Mushoku Tensei: Jobless Reincarnation [Season 2 Part 1 + Special] [BD 1080p x265 HEVC OPUS AAC] [Dual Audio] Mushoku Tensei II: Isekai Ittara Honki Dasu

Category:
Date:
2023-12-25 16:46 UTC
Submitter:
Seeders:
25
Information:
Leechers:
4
File size:
5.6 GiB
Completed:
1720
Info hash:
9307f3c944903423b7ce49049bcddbc4a4feba67
![](https://i.lensdump.com/i/6BKULK.png) *Come hang out in **[Discord](https://discord.gg/47Q7FdB54e)*** #### **[Mushoku Tensei: Jobless Reincarnation [Season 2 Part 1]](https://myanimelist.net/anime/51179/Mushoku_Tensei_II__Isekai_Ittara_Honki_Dasu)** #### **[Mushoku Tensei: Jobless Reincarnation - Episode 0 "Guardian Fitz" [Special]](https://myanimelist.net/anime/55818/Mushoku_Tensei_II__Isekai_Ittara_Honki_Dasu_-_Shugo_Jutsushi_Fitz)** โ–ถ๏ธ **[Trailer](https://www.youtube.com/watch?v=keti2rbgI6c)** --- **Related Uploads:** **[Season 1 Part 1](https://nyaa.si/view/1402393)** **[Season 1 Part 2 + Special](https://nyaa.si/view/1504113)** --- **Synopsis** After his relationship with Eris Boreas Greyrat reaches new heights, Rudeus Greyrat is ecstatic. Unfortunately, his joy is short-lived, as Eris suddenly abandons him to embark on her own journey. Believing that Eris has lost all interest in him, a heartbroken and depressed Rudeus sets forth to the Northern Territories. With his sole goal being to locate his mother on the vast continent, Rudeus wonders if persisting through daily life is worth the pain, falling into a robotic routine as he endlessly ruminates on his lost love. However, the dangers of the North soon prove that one cannot survive with a dulled mind. While on a quest with the party Counter Arrow, with whom he recently became acquainted, Rudeus has a brush with deathโ€”an experience that forces him to finally snap out of his despair. With his newfound teammates, Rudeus rediscovers the pleasure of daily adventuring and moves forward with his original goal of living his second lease on life to the fullest. ![](https://c.l3n.co/i/3mOlBb.png) --- **Language Options** I included two simple scripts that you can apply to these files to do the following (Windows only): 1. Make [Single Audio] Japanese: Throws out *English audio* and *Signs&Songs subtitles* tracks 2. Make [Single Audio] English: Throws out *Japanese audio* and *Dialogue subtitles* tracks To apply these put all the video files into the *Language Options* folder and run the .bat file. *Don't combine them and only use them once together with the base files.* --- **Source** ๐Ÿ—ƒ๏ธ Video and JPN Audio (JPN BDMV): **[Ronny]** ๐Ÿ—ƒ๏ธ ENG Audio (WEB): **[[Yameii]](https://nyaa.si/view/1696461)** ๐Ÿ—ƒ๏ธ Subtitles: **[[MTBB]](https://nyaa.si/view/1724972)** ๐Ÿ’ฌ *Subtitles Info: [MTBB]* *Thank you all for making this possible <3* --- **Media Info** ๐Ÿ†” **[Full Mediainfo incl. Encoder Settings](https://pastebin.com/hUmYa1S6)** ``` General Unique ID : 13183000853291862640378405429597519780 (0x9EAF41FC9590CA99EFDA426DFFD3FA4) Complete name : Mushoku Tensei - Jobless Reincarnation - S02E01.mkv Format : Matroska Format version : Version 4 File size : 403 MiB Duration : 23 min 42 s Overall bit rate : 2 377 kb/s Encoded date : UTC 2023-12-25 15:54:27 Writing application : mkvmerge v72.0.0 ('Minuano (Six-eight)') 64-bit Writing library : libebml v1.4.4 + libmatroska v1.7.1 Attachments : BOLTON.TTF / GandhiSans-BoldItalic_0.otf / GandhiSans-Bold_0.otf / QUADRAAT-REGULAR.OTF / SOUVENIRSTD-LIGHT.OTF Video ID : 1 Format : HEVC Format/Info : High Efficiency Video Coding Format profile : Main 10@L4@High Codec ID : V_MPEGH/ISO/HEVC Duration : 23 min 41 s Bit rate : 2 129 kb/s Width : 1 920 pixels Height : 1 080 pixels Display aspect ratio : 16:9 Frame rate mode : Constant Frame rate : 23.976 (24000/1001) FPS Color space : YUV Chroma subsampling : 4:2:0 Bit depth : 10 bits Bits/(Pixel*Frame) : 0.043 Stream size : 361 MiB (89%) Writing library : x265 3.5+37+12-4e46995bc:[Windows][MSVC 1931][64 bit] 10bit Encoding settings : <Check Link Above> Default : Yes Forced : No Audio #1 ID : 2 Format : AAC LC Format/Info : Advanced Audio Codec Low Complexity Codec ID : A_AAC-2 Duration : 23 min 41 s Bit rate : 128 kb/s Channel(s) : 2 channels Channel layout : L R Sampling rate : 44.1 kHz Frame rate : 43.066 FPS (1024 SPF) Compression mode : Lossy Stream size : 21.7 MiB (5%) Title : English Language : English Default : Yes Forced : No Audio #2 ID : 3 Format : Opus Codec ID : A_OPUS Duration : 23 min 41 s Bit rate : 117 kb/s Channel(s) : 2 channels Channel layout : L R Sampling rate : 48.0 kHz Frame rate : 50.000 FPS (960 SPF) Bit depth : 32 bits Compression mode : Lossy Stream size : 19.9 MiB (5%) Title : Japanese Language : Japanese Default : No Forced : No Text #1 ID : 4 Format : ASS Codec ID : S_TEXT/ASS Codec ID/Info : Advanced Sub Station Alpha Duration : 22 min 43 s Bit rate : 35 b/s Frame rate : 0.030 FPS Count of elements : 41 Compression mode : Lossless Stream size : 5.86 KiB (0%) Title : Signs & Songs Language : English Default : No Forced : Yes Text #2 ID : 5 Format : ASS Codec ID : S_TEXT/ASS Codec ID/Info : Advanced Sub Station Alpha Duration : 23 min 18 s Bit rate : 130 b/s Frame rate : 0.239 FPS Count of elements : 334 Compression mode : Lossless Stream size : 22.3 KiB (0%) Title : Dialogue Language : English Default : Yes Forced : No Menu 00:00:00.000 : :Episode 00:23:35.890 : :Preview ```

File list

  • [neoDESU] Mushoku Tensei - Jobless Reincarnation [Season 2 Part 1 + Special] [BD 1080p x265 HEVC OPUS AAC] [Dual Audio]
    • Language Options
      • 1. Make [Single Audio] English.bat (254 Bytes)
      • 2. Make [Single Audio] Japanese.bat (254 Bytes)
      • mkvmerge.exe (9.6 MiB)
      • readme.txt (511 Bytes)
    • Season 2
      • Mushoku Tensei - Jobless Reincarnation - S02E01.mkv (403.2 MiB)
      • Mushoku Tensei - Jobless Reincarnation - S02E02.mkv (523.1 MiB)
      • Mushoku Tensei - Jobless Reincarnation - S02E03.mkv (422.6 MiB)
      • Mushoku Tensei - Jobless Reincarnation - S02E04.mkv (420.6 MiB)
      • Mushoku Tensei - Jobless Reincarnation - S02E05.mkv (432.7 MiB)
      • Mushoku Tensei - Jobless Reincarnation - S02E06.mkv (443.0 MiB)
      • Mushoku Tensei - Jobless Reincarnation - S02E07.mkv (436.0 MiB)
      • Mushoku Tensei - Jobless Reincarnation - S02E08.mkv (425.7 MiB)
      • Mushoku Tensei - Jobless Reincarnation - S02E09.mkv (425.0 MiB)
      • Mushoku Tensei - Jobless Reincarnation - S02E10.mkv (464.6 MiB)
      • Mushoku Tensei - Jobless Reincarnation - S02E11.mkv (454.5 MiB)
      • Mushoku Tensei - Jobless Reincarnation - S02E12.mkv (450.9 MiB)
    • Specials
      • Mushoku Tensei - Jobless Reincarnation - S02E00 - [S02S01 Episode 0 Guardian Fitz].mkv (394.3 MiB)

neoborn (uploader)

User
I messed up the naming of the special episode. Instead of S02E00 it needs to be **S00E02** according to TVDB in order to make it compatible with media servers metadata scraping.
does the BD version add anything ? if not I'm gonna stick to my non-BD version
@JoeGP BD version is bound to have better quality by default if same encoding is used as with the vanilla version
@JoeGP - BD version should have some uncensored scenes as well as minor fixes, though I haven't seen a direct comparison as of yet.
@tktorrents thanks, and yes, it seems the BD version is uncensored, although the changes are minor from what I could find, on being a scene in ep 3 where they removed the diagonal black bar, but some regions had more censoring than others.