[MagicStar] Ichiban Suki na Hana EP11 END [WEBDL] [1080p] [AMZN] [JPN_SUB]

Category:
Date:
2023-12-24 14:36 UTC
Submitter:
Seeders:
5
File size:
2.1 GiB
Completed:
554
Info hash:
8c0f2c5d4964c988bf1ddbd1e1cf12f8f486ab2b
HD 1080p from Prime Video. Use CBR bitrate mode. Japanese subtitles added. ************** We are planning to upload all Prime Video Japan Dramas and Movies, we need your Support! ************** Support Us Ali (Zhifubao / QR code): https://i.ibb.co/FWV2ggm/1660626347125.png PayPalMe: https://www.paypal.com/paypalme/sakuragikenji ETH (ERC20): 0xea3286E176099E8C9aBaf25A0edf231374C04E89 USDT (BTC / OMNI): 1Lemw6fu5vG3NdvWGxDxsPX7T7yUb3rNzu ************** ![alt text](https://i.ibb.co/8DprWJK/98cef8c442102dca937c057e14c787ca649888c9ed16c775a1a8ad7a4d8128c4.jpg) ![alt text](https://i.ibb.co/c2XyNJk/Ichiban-Suki-na-Hana-EP11-1080p-AMZN-WEB-DL-DDP2-0-H-264-Magic-Star-mkv.jpg) ``` General Unique ID : 29571556997648243546413881432631894289 (0x163F46538D25723164B9F889C04F6111) Complete name : Ichiban.Suki.na.Hana.EP11.1080p.AMZN.WEB-DL.DDP2.0.H.264-MagicStar.mkv Format : Matroska Format version : Version 4 File size : 2.08 GiB Duration : 57 min 1 s Overall bit rate mode : Constant Overall bit rate : 5 216 kb/s Frame rate : 29.970 FPS Encoded date : 2023-12-24 14:27:35 UTC Writing application : mkvmerge v50.0.0 ('Awakenings') 64-bit Writing library : libebml v1.4.0 + libmatroska v1.6.2 Cover : Yes Attachments : cover.png Video ID : 1 Format : AVC Format/Info : Advanced Video Codec Format profile : High@L4 Format settings : CABAC / 4 Ref Frames Format settings, CABAC : Yes Format settings, Reference fra : 4 frames Codec ID : V_MPEG4/ISO/AVC Duration : 57 min 1 s Bit rate mode : Constant Bit rate : 4 985 kb/s Nominal bit rate : 10 000 kb/s Width : 1 920 pixels Height : 1 080 pixels Display aspect ratio : 16:9 Frame rate mode : Constant Frame rate : 29.970 (29970/1000) FPS Original frame rate : 29.970 (30000/1001) FPS Color space : YUV Chroma subsampling : 4:2:0 Bit depth : 8 bits Scan type : Progressive Bits/(Pixel*Frame) : 0.080 Stream size : 1.99 GiB (96%) Default : Yes Forced : No Color range : Limited Color primaries : BT.709 Transfer characteristics : BT.709 Matrix coefficients : BT.709 Audio ID : 2 Format : E-AC-3 Format/Info : Enhanced AC-3 Commercial name : Dolby Digital Plus Codec ID : A_EAC3 Duration : 57 min 1 s Bit rate mode : Constant Bit rate : 224 kb/s Channel(s) : 2 channels Channel layout : L R Sampling rate : 48.0 kHz Frame rate : 31.250 FPS (1536 SPF) Compression mode : Lossy Stream size : 91.4 MiB (4%) Title : 日本語 [オリジナル] Language : Japanese Service kind : Complete Main Default : Yes Forced : No ```

File list