[MagicStar] Ichiban Suki na Hana EP11 END [WEBDL] [1080p] [FOD] [JPN_SUB]

Category:
Date:
2023-12-22 13:58 UTC
Submitter:
Seeders:
14
File size:
1.3 GiB
Completed:
1368
Info hash:
24f0da550ac9ca61a1b4410e735db6b343946d50
HD 1080p from FOD. Japanese subtitles added. ![alt text](https://i.ibb.co/8DprWJK/98cef8c442102dca937c057e14c787ca649888c9ed16c775a1a8ad7a4d8128c4.jpg) ![alt text](https://i.ibb.co/Dt4YTkh/Ichiban-Suki-na-Hana-EP11-1080p-FOD-WEB-DL-AAC2-0-H-264-Magic-Star-mkv.jpg) ``` General Unique ID : 151470367511676622369020470607942643139 (0x71F421B3ABB4E40B16B2704DFEA5EDC3) Complete name : Ichiban.Suki.na.Hana.EP11.1080p.FOD.WEB-DL.AAC2.0.H.264-MagicStar.mkv Format : Matroska Format version : Version 4 File size : 1.32 GiB Duration : 57 min 1 s Overall bit rate mode : Variable Overall bit rate : 3 309 kb/s Frame rate : 29.970 FPS Encoded date : 2023-12-22 11:40:31 UTC Writing application : mkvmerge v50.0.0 ('Awakenings') 64-bit Writing library : libebml v1.4.0 + libmatroska v1.6.2 Video ID : 1 Format : AVC Format/Info : Advanced Video Codec Format profile : High@L4.1 Format settings : CABAC / 2 Ref Frames Format settings, CABAC : Yes Format settings, Reference fra : 2 frames Codec ID : V_MPEG4/ISO/AVC Duration : 57 min 1 s Bit rate mode : Variable Bit rate : 3 115 kb/s Maximum bit rate : 6 000 kb/s Width : 1 920 pixels Height : 1 080 pixels Display aspect ratio : 16:9 Frame rate mode : Constant Frame rate : 29.970 (29970/1000) FPS Original frame rate : 29.970 (30000/1001) FPS Color space : YUV Chroma subsampling : 4:2:0 Bit depth : 8 bits Scan type : Progressive Bits/(Pixel*Frame) : 0.050 Stream size : 1.24 GiB (94%) Default : Yes Forced : No Audio ID : 2 Format : AAC LC Format/Info : Advanced Audio Codec Low Complexity Codec ID : A_AAC-2 Duration : 57 min 1 s Bit rate : 192 kb/s Channel(s) : 2 channels Channel layout : L R Sampling rate : 48.0 kHz Frame rate : 46.875 FPS (1024 SPF) Compression mode : Lossy Stream size : 78.3 MiB (6%) Title : 日本語 [オリジナル] Language : Japanese Default : Yes Forced : No ```

File list