[MagicStar] My Home Hero EP10 END [WEBDL] [720p] [DSNP] [JPN_ENG_CHT_SUB]

Category:
Date:
2023-12-20 02:50 UTC
Submitter:
Seeders:
2
Information:
Leechers:
0
File size:
579.2 MiB
Completed:
646
Info hash:
519461aca811ae1c9a6376dc018972f1ed75a69b
HD 720p from Disney+. Japanese, English and Chinese subtitles added. ![alt text](https://i.ibb.co/09rDgDC/myhomehero.jpg) ![alt text](https://i.ibb.co/VJSGLmS/My-Home-Hero-EP10-720p-DSNP-WEB-DL-AAC2-0-H-264-Magic-Star-mkv.jpg) ``` General Unique ID : 211599736123228640903608635395263696749 (0x9F30A0761F8748E0259171FFB2280F6D) Complete name : My.Home.Hero.EP10.720p.DSNP.WEB-DL.AAC2.0.H.264-MagicStar.mkv Format : Matroska Format version : Version 4 File size : 579 MiB Duration : 23 min 2 s Overall bit rate mode : Variable Overall bit rate : 3 515 kb/s Frame rate : 23.976 FPS Encoded date : 2023-12-20 02:35:14 UTC Writing application : mkvmerge v50.0.0 ('Awakenings') 64-bit Writing library : libebml v1.4.0 + libmatroska v1.6.2 Cover : Yes Attachments : cover.png Video ID : 1 Format : AVC Format/Info : Advanced Video Codec Format profile : High@L3.1 Format settings : CABAC / 4 Ref Frames Format settings, CABAC : Yes Format settings, Reference fra : 4 frames Codec ID : V_MPEG4/ISO/AVC Duration : 23 min 2 s Bit rate mode : Variable Bit rate : 3 296 kb/s Maximum bit rate : 6 375 kb/s Width : 1 280 pixels Height : 720 pixels Display aspect ratio : 16:9 Frame rate mode : Constant Frame rate : 23.976 (24000/1001) FPS Color space : YUV Chroma subsampling : 4:2:0 Bit depth : 8 bits Scan type : Progressive Bits/(Pixel*Frame) : 0.149 Stream size : 543 MiB (94%) Default : Yes Forced : No Color range : Limited Color primaries : BT.709 Transfer characteristics : BT.709 Matrix coefficients : BT.709 Audio ID : 2 Format : AAC LC Format/Info : Advanced Audio Codec Low Complexity Codec ID : A_AAC-2 Duration : 23 min 2 s Bit rate : 125 kb/s Channel(s) : 2 channels Channel layout : L R Sampling rate : 48.0 kHz Frame rate : 46.875 FPS (1024 SPF) Compression mode : Lossy Stream size : 20.7 MiB (4%) Title : 日本語 [オリジナル] Language : Japanese Default : Yes Forced : No ```

File list

  • [MagicStar] My Home Hero EP10 END [WEBDL] [720p] [DSNP] [JPN_ENG_CHT_SUB]
    • My.Home.Hero.EP10.720p.DSNP.WEB-DL.AAC2.0.H.264-MagicStar.Cht.srt (15.7 KiB)
    • My.Home.Hero.EP10.720p.DSNP.WEB-DL.AAC2.0.H.264-MagicStar.Eng.srt (21.4 KiB)
    • My.Home.Hero.EP10.720p.DSNP.WEB-DL.AAC2.0.H.264-MagicStar.Jpn.srt (19.3 KiB)
    • My.Home.Hero.EP10.720p.DSNP.WEB-DL.AAC2.0.H.264-MagicStar.mkv (579.1 MiB)