[MagicStar] My Home Hero EP10 END [WEBDL] [1080p] [JPN_SUB]

Category:
Date:
2023-12-20 02:50 UTC
Submitter:
Seeders:
4
Information:
Leechers:
0
File size:
498.1 MiB
Completed:
1424
Info hash:
93e3789fafea45e58d3176160f50c564c9fd536a
HD 1080p from TVer. Japanese subtitles added. ![alt text](https://i.ibb.co/09rDgDC/myhomehero.jpg) ![alt text](https://i.ibb.co/vXPJyQm/Magic-Star-My-Home-Hero-EP10-END-WEBDL-1080p-mkv.jpg) ``` General Unique ID : 111022951612159618371225952214267003044 (0x53863E21BEC75834A754798FDEC500A4) Complete name : [MagicStar] My Home Hero EP10 END [WEBDL] [1080p].mkv Format : Matroska Format version : Version 4 File size : 498 MiB Duration : 24 min 6 s Overall bit rate : 2 889 kb/s Frame rate : 29.970 FPS Encoded date : 2023-12-20 02:29:38 UTC Writing application : mkvmerge v50.0.0 ('Awakenings') 64-bit Writing library : libebml v1.4.0 + libmatroska v1.6.2 Video ID : 1 Format : AVC Format/Info : Advanced Video Codec Format profile : High@L4 Format settings : CABAC / 4 Ref Frames Format settings, CABAC : Yes Format settings, Reference fra : 4 frames Codec ID : V_MPEG4/ISO/AVC Duration : 24 min 6 s Bit rate : 2 696 kb/s Width : 1 920 pixels Height : 1 080 pixels Display aspect ratio : 16:9 Frame rate mode : Constant Frame rate : 29.970 (29970/1000) FPS Original frame rate : 29.970 (30000/1001) FPS Color space : YUV Chroma subsampling : 4:2:0 Bit depth : 8 bits Scan type : Progressive Bits/(Pixel*Frame) : 0.043 Stream size : 465 MiB (93%) Default : Yes Forced : No Audio ID : 2 Format : AAC LC Format/Info : Advanced Audio Codec Low Complexity Codec ID : A_AAC-2 Duration : 24 min 6 s Bit rate : 192 kb/s Channel(s) : 2 channels Channel layout : L R Sampling rate : 48.0 kHz Frame rate : 46.875 FPS (1024 SPF) Compression mode : Lossy Stream size : 32.8 MiB (7%) Title : 日本語 [オリジナル] Language : Japanese Default : Yes Forced : No ```

File list

Thanks for all new dramas' episodes and Merry Christmas !

MagicStar-subs (uploader)

User
@TZaou XD Thank u, Merry Christmas!