[MagicStar] Tatoe Anata wo Wasuretemo EP09 END [WEBDL] [1080p] [JPN_SUB]

Category:
Date:
2023-12-17 14:54 UTC
Submitter:
Seeders:
5
Information:
Leechers:
0
File size:
978.7 MiB
Completed:
610
Info hash:
56c4f6f085769e746ff7fc404220974933599fe3
HD 1080p from TVer. Japanese subtitles added. Audio description added. ![alt text](https://i.ibb.co/QXj88Rb/SID0094262.jpg) ![alt text](https://i.ibb.co/k90QMfv/Magic-Star-Tatoe-Anata-wo-Wasuretemo-EP09-END-WEBDL-1080p-mkv.jpg) ``` General Unique ID : 147206296646760256809934306217522563156 (0x6EBEE6C6D4F9DA5E9F11206601E30854) Complete name : [MagicStar] Tatoe Anata wo Wasuretemo EP09 END [WEBDL] [1080p].mkv Format : Matroska Format version : Version 4 File size : 979 MiB Duration : 44 min 39 s Overall bit rate mode : Variable Overall bit rate : 3 064 kb/s Frame rate : 29.970 FPS Encoded date : 2023-12-17 14:46:33 UTC Writing application : mkvmerge v50.0.0 ('Awakenings') 64-bit Writing library : libebml v1.4.0 + libmatroska v1.6.2 Video ID : 1 Format : AVC Format/Info : Advanced Video Codec Format profile : High@L4 Format settings : CABAC / 4 Ref Frames Format settings, CABAC : Yes Format settings, Reference fra : 4 frames Codec ID : V_MPEG4/ISO/AVC Duration : 44 min 39 s Bit rate mode : Variable Bit rate : 2 677 kb/s Maximum bit rate : 4 024 kb/s Width : 1 920 pixels Height : 1 080 pixels Display aspect ratio : 16:9 Frame rate mode : Constant Frame rate : 29.970 (29970/1000) FPS Original frame rate : 29.970 (30000/1001) FPS Color space : YUV Chroma subsampling : 4:2:0 Bit depth : 8 bits Scan type : Progressive Bits/(Pixel*Frame) : 0.043 Stream size : 855 MiB (87%) Default : Yes Forced : No Color range : Limited Color primaries : BT.709 Transfer characteristics : BT.709 Matrix coefficients : BT.709 Audio #1 ID : 2 Format : AAC LC Format/Info : Advanced Audio Codec Low Complexity Codec ID : A_AAC-2 Duration : 44 min 39 s Bit rate : 192 kb/s Channel(s) : 2 channels Channel layout : L R Sampling rate : 48.0 kHz Frame rate : 46.875 FPS (1024 SPF) Compression mode : Lossy Stream size : 61.3 MiB (6%) Title : 日本語 [オリジナル] Language : Japanese Default : Yes Forced : No Audio #2 ID : 3 Format : AAC LC Format/Info : Advanced Audio Codec Low Complexity Codec ID : A_AAC-2 Duration : 44 min 39 s Bit rate : 192 kb/s Channel(s) : 2 channels Channel layout : L R Sampling rate : 48.0 kHz Frame rate : 46.875 FPS (1024 SPF) Compression mode : Lossy Stream size : 61.3 MiB (6%) Title : 日本語 [解説放送音声] Language : Japanese Default : No Forced : No ```

File list