Girls.Last.Tour.S01.v2.1080p.BluRay.10-Bit.Dual-Audio.FLAC2.0.x265-YURASUKA (Shoujo Shuumatsu Ryokou)

Category:
Date:
2023-12-16 04:26 UTC
Submitter:
Seeders:
35
Information:
Leechers:
0
File size:
11.7 GiB
Completed:
1167
Info hash:
ba9a25f9bdac78d786baebb822b6aa030fc284db
Girls’ Last Tour / Shoujo Shuumatsu Ryokou Season 1 (2017) v2 v2 Changes: Re-encoded video (better source+AA+deband+better settings, see comparison) A/V + Subtitles Source: [Aergia@Nyaa](https://nyaa.si/view/1737039) (GER BD) [Asenshi, Sentai] [Encode Comparison](https://slow.pics/c/4VChTtTt) ``` Complete name : Girls.Last.Tour.S01E03.v2.1080p.BluRay.10-Bit.Dual-Audio.FLAC2.0.x265-YURASUKA.mkv Format : Matroska Format version : Version 4 File size : 981 MiB Duration : 23 min 43 s Overall bit rate mode : Variable Overall bit rate : 5 785 kb/s Frame rate : 23.976 FPS Movie name : Girls' Last Tour - S01E03 - YURASUKA v2 Encoded date : 2023-12-16 00:49:00 UTC Writing application : mkvmerge v81.0 ('Milliontown') 64-bit Writing library : libebml v1.4.4 + libmatroska v1.7.1 Attachments : cabin-Bold.ttf / remains.TTF / squarea.ttf / wellbutrin-Medium.ttf / cabin-BoldItalic.otf / schluber.otf Video ID : 1 Format : HEVC Format/Info : High Efficiency Video Coding Format profile : Main 10@L5@High Codec ID : V_MPEGH/ISO/HEVC Duration : 23 min 42 s Bit rate : 4 550 kb/s Width : 1 920 pixels Height : 1 080 pixels Display aspect ratio : 16:9 Frame rate mode : Constant Frame rate : 23.976 (24000/1001) FPS Color space : YUV Chroma subsampling : 4:2:0 Bit depth : 10 bits Bits/(Pixel*Frame) : 0.092 Stream size : 771 MiB (79%) Title : YURASUKA 1080p x265 v2 Writing library : x265 3.5:[Linux][GCC 13.2.1][64 bit] 10bit Encoding settings : cpuid=1111039 / frame-threads=5 / numa-pools=32 / wpp / no-pmode / no-pme / no-psnr / no-ssim / log-level=2 / input-csp=1 / input-res=1920x1080 / interlace=0 / total-frames=0 / level-idc=0 / high-tier=1 / uhd-bd=0 / ref=6 / no-allow-non-conformance / no-repeat-headers / annexb / no-aud / no-hrd / info / hash=0 / no-temporal-layers / open-gop / min-keyint=1 / keyint=360 / gop-lookahead=0 / bframes=16 / b-adapt=2 / b-pyramid / bframe-bias=0 / rc-lookahead=72 / lookahead-slices=4 / scenecut=40 / hist-scenecut=0 / radl=0 / no-splice / no-intra-refresh / ctu=32 / min-cu-size=8 / rect / amp / max-tu-size=32 / tu-inter-depth=3 / tu-intra-depth=3 / limit-tu=4 / rdoq-level=2 / dynamic-rd=0.00 / no-ssim-rd / signhide / tskip / nr-intra=0 / nr-inter=0 / no-constrained-intra / strong-intra-smoothing / max-merge=5 / limit-refs=3 / limit-modes / me=3 / subme=7 / merange=57 / temporal-mvp / no-frame-dup / no-hme / weightp / weightb / analyze-src-pics / deblock=0:0 / no-sao / no-sao-non-deblock / rd=6 / selective-sao=0 / no-early-skip / rskip / no-fast-intra / no-tskip-fast / no-cu-lossless / b-intra / no-splitrd-skip / rdpenalty=0 / psy-rd=2.00 / psy-rdoq=2.00 / no-rd-refine / no-lossless / cbqpoffs=-2 / crqpoffs=-2 / rc=crf / crf=16.0 / qcomp=0.72 / qpstep=4 / stats-write=0 / stats-read=0 / vbv-maxrate=20000 / vbv-bufsize=40000 / vbv-init=0.9 / min-vbv-fullness=50.0 / max-vbv-fullness=80.0 / crf-max=0.0 / crf-min=0.0 / ipratio=1.40 / pbratio=1.30 / aq-mode=3 / aq-strength=0.85 / cutree / zone-count=0 / no-strict-cbr / qg-size=32 / no-rc-grain / qpmax=69 / qpmin=0 / no-const-vbv / sar=1 / overscan=0 / videoformat=5 / range=0 / colorprim=1 / transfer=1 / colormatrix=1 / chromaloc=0 / display-window=0 / cll=0,0 / min-luma=0 / max-luma=1023 / log2-max-poc-lsb=8 / vui-timing-info / vui-hrd-info / slices=1 / no-opt-qp-pps / no-opt-ref-list-length-pps / no-multi-pass-opt-rps / scenecut-bias=0.05 / hist-threshold=0.03 / no-opt-cu-delta-qp / no-aq-motion / no-hdr10 / no-hdr10-opt / no-dhdr10-opt / no-idr-recovery-sei / analysis-reuse-level=0 / analysis-save-reuse-level=0 / analysis-load-reuse-level=0 / scale-factor=0 / refine-intra=0 / refine-inter=0 / refine-mv=1 / refine-ctu-distortion=0 / no-limit-sao / ctu-info=0 / no-lowpass-dct / refine-analysis-type=0 / copy-pic=1 / max-ausize-factor=1.0 / no-dynamic-refine / no-single-sei / no-hevc-aq / no-svt / no-field / qp-adaptation-range=1.00 / scenecut-aware-qp=0conformance-window-offsets / right=0 / bottom=0 / decoder-max-rate=0 / no-vbv-live-multi-pass Language : Japanese Default : Yes Forced : No Color range : Limited Color primaries : BT.709 Transfer characteristics : BT.709 Matrix coefficients : BT.709 Audio #1 ID : 2 Format : FLAC Format/Info : Free Lossless Audio Codec Codec ID : A_FLAC Duration : 23 min 43 s Bit rate mode : Variable Bit rate : 592 kb/s Channel(s) : 2 channels Channel layout : L R Sampling rate : 48.0 kHz Frame rate : 10.417 FPS (4608 SPF) Bit depth : 16 bits Compression mode : Lossless Stream size : 100 MiB (10%) Title : English FLAC 2.0 Writing library : Lavf60.16.100 Language : English Default : Yes Forced : No MD5 of the unencoded content : CF82270AFB6D30673E13D74040A6B025 Audio #2 ID : 3 Format : FLAC Format/Info : Free Lossless Audio Codec Codec ID : A_FLAC Duration : 23 min 42 s Bit rate mode : Variable Bit rate : 631 kb/s Channel(s) : 2 channels Channel layout : L R Sampling rate : 48.0 kHz Frame rate : 10.417 FPS (4608 SPF) Bit depth : 16 bits Compression mode : Lossless Stream size : 107 MiB (11%) Title : Japanese FLAC 2.0 Writing library : Lavf60.16.100 Language : Japanese Default : Yes Forced : No MD5 of the unencoded content : 721576AFB03640514A03F51C35B0D865 Text #1 Format : ASS Title : Signs & Songs [Asenshi] Language : English Default : Yes Forced : Yes Text #2 Format : ASS Title : Full Subtitles [Asenshi] Language : English Default : No Forced : No Text #3 Format : PGS Title : Signs & Songs [Sentai] Language : English Default : No Forced : Yes Text #4 Format : PGS Title : Full Subtitles [Sentai] Language : English Default : No Forced : No Menu 00:00:00.000 : en:Opening 00:01:31.008 : en:Part A 00:10:04.979 : en:Part B 00:22:04.990 : en:Ending 00:23:34.997 : en:Post-credits ``` Dead end for a sucker that’s a sucker like me. 私のようなカモの行き止まりです。

File list

  • Girls.Last.Tour.S01.v2.1080p.BluRay.10-Bit.Dual-Audio.FLAC2.0.x265-YURASUKA
    • Girls.Last.Tour.S01E01.v2.1080p.BluRay.10-Bit.Dual-Audio.FLAC2.0.x265-YURASUKA.mkv (985.1 MiB)
    • Girls.Last.Tour.S01E02.v2.1080p.BluRay.10-Bit.Dual-Audio.FLAC2.0.x265-YURASUKA.mkv (1.2 GiB)
    • Girls.Last.Tour.S01E03.v2.1080p.BluRay.10-Bit.Dual-Audio.FLAC2.0.x265-YURASUKA.mkv (981.3 MiB)
    • Girls.Last.Tour.S01E04.v2.1080p.BluRay.10-Bit.Dual-Audio.FLAC2.0.x265-YURASUKA.mkv (895.0 MiB)
    • Girls.Last.Tour.S01E05.v2.1080p.BluRay.10-Bit.Dual-Audio.FLAC2.0.x265-YURASUKA.mkv (1.3 GiB)
    • Girls.Last.Tour.S01E06.v2.1080p.BluRay.10-Bit.Dual-Audio.FLAC2.0.x265-YURASUKA.mkv (844.0 MiB)
    • Girls.Last.Tour.S01E07.v2.1080p.BluRay.10-Bit.Dual-Audio.FLAC2.0.x265-YURASUKA.mkv (848.5 MiB)
    • Girls.Last.Tour.S01E08.v2.1080p.BluRay.10-Bit.Dual-Audio.FLAC2.0.x265-YURASUKA.mkv (857.0 MiB)
    • Girls.Last.Tour.S01E09.v2.1080p.BluRay.10-Bit.Dual-Audio.FLAC2.0.x265-YURASUKA.mkv (758.3 MiB)
    • Girls.Last.Tour.S01E10.v2.1080p.BluRay.10-Bit.Dual-Audio.FLAC2.0.x265-YURASUKA.mkv (997.5 MiB)
    • Girls.Last.Tour.S01E11.v2.1080p.BluRay.10-Bit.Dual-Audio.FLAC2.0.x265-YURASUKA.mkv (1.0 GiB)
    • Girls.Last.Tour.S01E12.v2.1080p.BluRay.10-Bit.Dual-Audio.FLAC2.0.x265-YURASUKA.mkv (1.2 GiB)