[MagicStar] Ichiban Suki na Hana EP10 [WEBDL] [1080p] [FOD] [JPN_SUB]

Category:
Date:
2023-12-15 05:38 UTC
Submitter:
Seeders:
7
File size:
1.4 GiB
Completed:
1383
Info hash:
fef3e26efdad1571124fd3d3eba69aa550bfc082
HD 1080p from FOD. Japanese subtitles added. ![alt text](https://i.ibb.co/8DprWJK/98cef8c442102dca937c057e14c787ca649888c9ed16c775a1a8ad7a4d8128c4.jpg) ![alt text](https://i.ibb.co/w7WBjbx/Ichiban-Suki-na-Hana-EP10-1080p-FOD-WEB-DL-AAC2-0-H-264-Magic-Star-mkv.jpg) ``` General Unique ID : 24715658818414124442147272197921292593 (0x1298100FD16B6F87120BB2BDA88BC131) Complete name : Ichiban.Suki.na.Hana.EP10.1080p.FOD.WEB-DL.AAC2.0.H.264-MagicStar.mkv Format : Matroska Format version : Version 4 File size : 1.37 GiB Duration : 46 min 6 s Overall bit rate mode : Variable Overall bit rate : 4 255 kb/s Frame rate : 29.970 FPS Encoded date : 2023-12-15 04:37:48 UTC Writing application : mkvmerge v50.0.0 ('Awakenings') 64-bit Writing library : libebml v1.4.0 + libmatroska v1.6.2 Video ID : 1 Format : AVC Format/Info : Advanced Video Codec Format profile : High@L4.1 Format settings : CABAC / 2 Ref Frames Format settings, CABAC : Yes Format settings, Reference fra : 2 frames Codec ID : V_MPEG4/ISO/AVC Duration : 46 min 6 s Bit rate mode : Variable Bit rate : 4 061 kb/s Maximum bit rate : 15.0 Mb/s Width : 1 920 pixels Height : 1 080 pixels Display aspect ratio : 16:9 Frame rate mode : Constant Frame rate : 29.970 (29970/1000) FPS Original frame rate : 29.970 (30000/1001) FPS Color space : YUV Chroma subsampling : 4:2:0 Bit depth : 8 bits Scan type : Progressive Bits/(Pixel*Frame) : 0.065 Stream size : 1.31 GiB (95%) Default : Yes Forced : No Color range : Limited Color primaries : BT.709 Transfer characteristics : BT.709 Matrix coefficients : BT.709 Audio ID : 2 Format : AAC LC Format/Info : Advanced Audio Codec Low Complexity Codec ID : A_AAC-2 Duration : 46 min 6 s Bit rate : 192 kb/s Channel(s) : 2 channels Channel layout : L R Sampling rate : 48.0 kHz Frame rate : 46.875 FPS (1024 SPF) Compression mode : Lossy Stream size : 63.3 MiB (5%) Title : 日本語 [オリジナル] Language : Japanese Default : Yes Forced : No ```

File list

Thank you for completing this drama.