[MagicStar] My Home Hero EP08 [WEBDL] [1080p] [JPN_SUB]

Category:
Date:
2023-12-07 20:24 UTC
Submitter:
Seeders:
5
Information:
Leechers:
0
File size:
499.3 MiB
Completed:
1472
Info hash:
633433478d8da975a0736c1ecc3a39ba17755b71
HD 1080p from TVer. Japanese subtitles added. ![alt text](https://i.ibb.co/09rDgDC/myhomehero.jpg) ![alt text](https://i.ibb.co/r6bX610/Magic-Star-My-Home-Hero-EP08-WEBDL-1080p-mkv.jpg) ``` General Unique ID : 2572941653803271295910001367741115489 (0x1EF87D1504830A50E038E29C7F02C61) Complete name : [MagicStar] My Home Hero EP08 [WEBDL] [1080p].mkv Format : Matroska Format version : Version 4 File size : 499 MiB Duration : 24 min 6 s Overall bit rate : 2 896 kb/s Frame rate : 29.970 FPS Encoded date : 2023-12-07 20:21:11 UTC Writing application : mkvmerge v50.0.0 ('Awakenings') 64-bit Writing library : libebml v1.4.0 + libmatroska v1.6.2 Video ID : 1 Format : AVC Format/Info : Advanced Video Codec Format profile : High@L4 Format settings : CABAC / 4 Ref Frames Format settings, CABAC : Yes Format settings, Reference fra : 4 frames Codec ID : V_MPEG4/ISO/AVC Duration : 24 min 5 s Bit rate : 2 702 kb/s Width : 1 920 pixels Height : 1 080 pixels Display aspect ratio : 16:9 Frame rate mode : Constant Frame rate : 29.970 (29970/1000) FPS Original frame rate : 29.970 (30000/1001) FPS Color space : YUV Chroma subsampling : 4:2:0 Bit depth : 8 bits Scan type : Progressive Bits/(Pixel*Frame) : 0.043 Stream size : 466 MiB (93%) Default : Yes Forced : No Audio ID : 2 Format : AAC LC Format/Info : Advanced Audio Codec Low Complexity Codec ID : A_AAC-2 Duration : 24 min 6 s Bit rate : 192 kb/s Channel(s) : 2 channels Channel layout : L R Sampling rate : 48.0 kHz Frame rate : 46.875 FPS (1024 SPF) Compression mode : Lossy Stream size : 33.0 MiB (7%) Title : 日本語 [オリジナル] Language : Japanese Default : Yes Forced : No ```

File list