Banished.from.the.Heros.Party.I.Decided.to.Live.a.Quiet.Life.in.the.Countryside.S01.1080p.BluRay.10-Bit.Dual-Audio.FLAC5.1.x265-YURASUKA (Shin no Nakama janai to Yuusha no Party wo Oidasareta node Henkyou de Slow Life Suru Koto ni Shimashita)

Category:
Date:
2023-12-02 06:03 UTC
Submitter:
Seeders:
15
Information:
Leechers:
3
File size:
18.9 GiB
Completed:
1019
Info hash:
fb3531862760f84896d7a86bfbd64830fe9ff124
Banished from the Hero's Party, I Decided to Live a Quiet Life in the Countryside / Shin no Nakama janai to Yuusha no Party wo Oidasareta node, Henkyou de Slow Life Suru Koto ni Shimashita Season 1 (2021) A/V + Subtitles Source: [TTGA@Nyaa](https://nyaa.si/view/1643703) (JPBD video, USBD audio, Cyan subtitles) [Encode Comparison](https://slow.pics/c/PX9gD56F) ``` Complete name : Banished.from.the.Heros.Party.I.Decided.to.Live.a.Quiet.Life.in.the.Countryside.S01E09.1080p.BluRay.10-Bit.Dual-Audio.FLAC5.1.x265-YURASUKA.mkv Format : Matroska Format version : Version 4 File size : 1.48 GiB Duration : 23 min 41 s Overall bit rate mode : Variable Overall bit rate : 8 916 kb/s Frame rate : 23.976 FPS Movie name : Banished from the Hero's Party, I Decided to Live a Quiet Life in the Countryside - S01E09 - YURASUKA Encoded date : 2023-12-02 04:52:39 UTC Writing application : mkvmerge v80.0 ('Roundabout') 64-bit Writing library : libebml v1.4.4 + libmatroska v1.7.1 Cover : Yes Attachments : Apache.ttf / Chiaki Bold Italic.ttf / Chiaki Bold.ttf / DaxlinePro-Black.otf / DK Prince Frog.otf / Lato-Reg.ttf / MAIAN.TTF / Roboto-Medium.ttf / Roboto-MediumItalic.ttf / Simple Kind Of Girl.ttf / tf2professor.ttf / AireExterior.ttf / cover.jpg Video ID : 1 Format : HEVC Format/Info : High Efficiency Video Coding Format profile : Main 10@L5@High Codec ID : V_MPEGH/ISO/HEVC Duration : 23 min 41 s Bit rate : 6 993 kb/s Width : 1 920 pixels Height : 1 080 pixels Display aspect ratio : 16:9 Frame rate mode : Constant Frame rate : 23.976 (24000/1001) FPS Color space : YUV Chroma subsampling : 4:2:0 Bit depth : 10 bits Bits/(Pixel*Frame) : 0.141 Stream size : 1.16 GiB (78%) Title : YURASUKA 1080p x265 Writing library : x265 3.5:[Linux][GCC 11.2.0][64 bit] 10bit Encoding settings : cpuid=1111039 / frame-threads=5 / numa-pools=32 / wpp / no-pmode / no-pme / no-psnr / no-ssim / log-level=2 / input-csp=1 / input-res=1920x1080 / interlace=0 / total-frames=0 / level-idc=0 / high-tier=1 / uhd-bd=0 / ref=6 / no-allow-non-conformance / no-repeat-headers / annexb / no-aud / no-hrd / info / hash=0 / no-temporal-layers / open-gop / min-keyint=1 / keyint=360 / gop-lookahead=0 / bframes=16 / b-adapt=2 / b-pyramid / bframe-bias=0 / rc-lookahead=72 / lookahead-slices=4 / scenecut=40 / hist-scenecut=0 / radl=0 / no-splice / no-intra-refresh / ctu=32 / min-cu-size=8 / rect / amp / max-tu-size=32 / tu-inter-depth=3 / tu-intra-depth=3 / limit-tu=4 / rdoq-level=2 / dynamic-rd=0.00 / no-ssim-rd / signhide / tskip / nr-intra=0 / nr-inter=0 / no-constrained-intra / strong-intra-smoothing / max-merge=5 / limit-refs=3 / limit-modes / me=3 / subme=7 / merange=57 / temporal-mvp / no-frame-dup / no-hme / weightp / weightb / analyze-src-pics / deblock=0:0 / no-sao / no-sao-non-deblock / rd=6 / selective-sao=0 / no-early-skip / rskip / no-fast-intra / no-tskip-fast / no-cu-lossless / b-intra / no-splitrd-skip / rdpenalty=0 / psy-rd=2.00 / psy-rdoq=2.00 / no-rd-refine / no-lossless / cbqpoffs=-2 / crqpoffs=-2 / rc=crf / crf=16.0 / qcomp=0.72 / qpstep=4 / stats-write=0 / stats-read=0 / vbv-maxrate=20000 / vbv-bufsize=40000 / vbv-init=0.9 / min-vbv-fullness=50.0 / max-vbv-fullness=80.0 / crf-max=0.0 / crf-min=0.0 / ipratio=1.40 / pbratio=1.30 / aq-mode=3 / aq-strength=0.85 / cutree / zone-count=0 / no-strict-cbr / qg-size=32 / no-rc-grain / qpmax=69 / qpmin=0 / no-const-vbv / sar=1 / overscan=0 / videoformat=5 / range=0 / colorprim=1 / transfer=1 / colormatrix=1 / chromaloc=0 / display-window=0 / cll=0,0 / min-luma=0 / max-luma=1023 / log2-max-poc-lsb=8 / vui-timing-info / vui-hrd-info / slices=1 / no-opt-qp-pps / no-opt-ref-list-length-pps / no-multi-pass-opt-rps / scenecut-bias=0.05 / hist-threshold=0.03 / no-opt-cu-delta-qp / no-aq-motion / no-hdr10 / no-hdr10-opt / no-dhdr10-opt / no-idr-recovery-sei / analysis-reuse-level=0 / analysis-save-reuse-level=0 / analysis-load-reuse-level=0 / scale-factor=0 / refine-intra=0 / refine-inter=0 / refine-mv=1 / refine-ctu-distortion=0 / no-limit-sao / ctu-info=0 / no-lowpass-dct / refine-analysis-type=0 / copy-pic=1 / max-ausize-factor=1.0 / no-dynamic-refine / no-single-sei / no-hevc-aq / no-svt / no-field / qp-adaptation-range=1.00 / scenecut-aware-qp=0conformance-window-offsets / right=0 / bottom=0 / decoder-max-rate=0 / no-vbv-live-multi-pass Language : Japanese Default : Yes Forced : No Color range : Limited Color primaries : BT.709 Transfer characteristics : BT.709 Matrix coefficients : BT.709 Audio #1 ID : 2 Format : FLAC Format/Info : Free Lossless Audio Codec Codec ID : A_FLAC Duration : 23 min 41 s Bit rate mode : Variable Bit rate : 1 222 kb/s Channel(s) : 6 channels Channel layout : L R C LFE Ls Rs Sampling rate : 48.0 kHz Frame rate : 10.417 FPS (4608 SPF) Bit depth : 16 bits Compression mode : Lossless Stream size : 207 MiB (14%) Title : English FLAC 5.1 Writing library : Lavf60.16.100 Language : English Default : Yes Forced : No MD5 of the unencoded content : 3806216D391D12BF8366AEB934519240 Audio #2 ID : 3 Format : FLAC Format/Info : Free Lossless Audio Codec Codec ID : A_FLAC Duration : 23 min 41 s Bit rate mode : Variable Bit rate : 662 kb/s Channel(s) : 2 channels Channel layout : L R Sampling rate : 48.0 kHz Frame rate : 10.417 FPS (4608 SPF) Bit depth : 16 bits Compression mode : Lossless Stream size : 112 MiB (7%) Title : Japanese FLAC 2.0 Writing library : Lavf60.16.100 Language : Japanese Default : Yes Forced : No MD5 of the unencoded content : 1F6A0A7B79FE29808D5C3EF7B1B7DD83 Text #1 Format : ASS Title : Signs & Songs [Cyan+EMBER] Language : English Default : Yes Forced : Yes Text #2 Format : ASS Title : Full Subtitles [Cyan] Language : English Default : No Forced : No Text #3 Format : PGS Title : Signs & Songs (USBD) Language : English Default : No Forced : Yes Text #4 Format : PGS Title : Full Subtitles (USBD) Language : English Default : No Forced : No Menu 00:00:00.000 : en:Intro 00:00:52.051 : en:OP 00:02:22.016 : en:Part A 00:10:27.084 : en:Part B 00:22:10.078 : en:ED ``` Dead end for a sucker that’s a sucker like me. 私のようなカモの行き止まりです。

File list

  • Banished.from.the.Heros.Party.I.Decided.to.Live.a.Quiet.Life.in.the.Countryside.S01.1080p.BluRay.10-Bit.Dual-Audio.FLAC5.1.x265-YURASUKA
    • Banished.from.the.Heros.Party.I.Decided.to.Live.a.Quiet.Life.in.the.Countryside.S01E01.1080p.BluRay.10-Bit.Dual-Audio.FLAC5.1.x265-YURASUKA.mkv (1.5 GiB)
    • Banished.from.the.Heros.Party.I.Decided.to.Live.a.Quiet.Life.in.the.Countryside.S01E02.1080p.BluRay.10-Bit.Dual-Audio.FLAC5.1.x265-YURASUKA.mkv (1.8 GiB)
    • Banished.from.the.Heros.Party.I.Decided.to.Live.a.Quiet.Life.in.the.Countryside.S01E03.1080p.BluRay.10-Bit.Dual-Audio.FLAC5.1.x265-YURASUKA.mkv (1.2 GiB)
    • Banished.from.the.Heros.Party.I.Decided.to.Live.a.Quiet.Life.in.the.Countryside.S01E04.1080p.BluRay.10-Bit.Dual-Audio.FLAC5.1.x265-YURASUKA.mkv (1.2 GiB)
    • Banished.from.the.Heros.Party.I.Decided.to.Live.a.Quiet.Life.in.the.Countryside.S01E05.1080p.BluRay.10-Bit.Dual-Audio.FLAC5.1.x265-YURASUKA.mkv (1.8 GiB)
    • Banished.from.the.Heros.Party.I.Decided.to.Live.a.Quiet.Life.in.the.Countryside.S01E06.1080p.BluRay.10-Bit.Dual-Audio.FLAC5.1.x265-YURASUKA.mkv (1.5 GiB)
    • Banished.from.the.Heros.Party.I.Decided.to.Live.a.Quiet.Life.in.the.Countryside.S01E07.1080p.BluRay.10-Bit.Dual-Audio.FLAC5.1.x265-YURASUKA.mkv (1.5 GiB)
    • Banished.from.the.Heros.Party.I.Decided.to.Live.a.Quiet.Life.in.the.Countryside.S01E08.1080p.BluRay.10-Bit.Dual-Audio.FLAC5.1.x265-YURASUKA.mkv (1.3 GiB)
    • Banished.from.the.Heros.Party.I.Decided.to.Live.a.Quiet.Life.in.the.Countryside.S01E09.1080p.BluRay.10-Bit.Dual-Audio.FLAC5.1.x265-YURASUKA.mkv (1.5 GiB)
    • Banished.from.the.Heros.Party.I.Decided.to.Live.a.Quiet.Life.in.the.Countryside.S01E10.1080p.BluRay.10-Bit.Dual-Audio.FLAC5.1.x265-YURASUKA.mkv (1.5 GiB)
    • Banished.from.the.Heros.Party.I.Decided.to.Live.a.Quiet.Life.in.the.Countryside.S01E11.1080p.BluRay.10-Bit.Dual-Audio.FLAC5.1.x265-YURASUKA.mkv (1.4 GiB)
    • Banished.from.the.Heros.Party.I.Decided.to.Live.a.Quiet.Life.in.the.Countryside.S01E12.1080p.BluRay.10-Bit.Dual-Audio.FLAC5.1.x265-YURASUKA.mkv (1.5 GiB)
    • Banished.from.the.Heros.Party.I.Decided.to.Live.a.Quiet.Life.in.the.Countryside.S01E13.1080p.BluRay.10-Bit.Dual-Audio.FLAC5.1.x265-YURASUKA.mkv (1.2 GiB)