[MagicStar] Fermat no Ryouri EP07 [WEBDL] [1080p] [JPN_SUB]

Category:
Date:
2023-12-01 14:52 UTC
Submitter:
Seeders:
4
Information:
Leechers:
1
File size:
774.5 MiB
Completed:
1040
Info hash:
d785f757095a5db2f0bec26fb1a20ccc1c47c00c
HD 1080p from TVer. Japanese subtitles added. ![alt text](https://i.ibb.co/7kPw2r7/240211.jpg) ![alt text](https://i.ibb.co/KW9CtnF/Magic-Star-Fermat-no-Ryouri-EP07-WEBDL-1080p-mkv.jpg) ``` General Unique ID : 70486299698998684768807489973083717549 (0x35072AE2FACE05B49B37EFE622D83FAD) Complete name : [MagicStar] Fermat no Ryouri EP07 [WEBDL] [1080p].mkv Format : Matroska Format version : Version 4 File size : 774 MiB Duration : 45 min 51 s Overall bit rate : 2 361 kb/s Frame rate : 29.970 FPS Encoded date : 2023-12-01 14:12:14 UTC Writing application : mkvmerge v50.0.0 ('Awakenings') 64-bit Writing library : libebml v1.4.0 + libmatroska v1.6.2 Video ID : 1 Format : AVC Format/Info : Advanced Video Codec Format profile : High@L4 Format settings : CABAC / 4 Ref Frames Format settings, CABAC : Yes Format settings, Reference fra : 4 frames Codec ID : V_MPEG4/ISO/AVC Duration : 45 min 51 s Bit rate : 2 167 kb/s Width : 1 920 pixels Height : 1 080 pixels Display aspect ratio : 16:9 Frame rate mode : Constant Frame rate : 29.970 (29970/1000) FPS Original frame rate : 29.970 (30000/1001) FPS Color space : YUV Chroma subsampling : 4:2:0 Bit depth : 8 bits Scan type : Progressive Bits/(Pixel*Frame) : 0.035 Stream size : 711 MiB (92%) Default : Yes Forced : No Color range : Limited Color primaries : BT.709 Transfer characteristics : BT.709 Matrix coefficients : BT.709 Audio ID : 2 Format : AAC LC Format/Info : Advanced Audio Codec Low Complexity Codec ID : A_AAC-2 Duration : 45 min 51 s Bit rate : 192 kb/s Channel(s) : 2 channels Channel layout : L R Sampling rate : 48.0 kHz Frame rate : 46.875 FPS (1024 SPF) Compression mode : Lossy Stream size : 62.9 MiB (8%) Title : 日本語 [オリジナル] Language : Japanese Default : Yes Forced : No ```

File list