[MagicStar] My Home Hero EP07 [WEBDL] [720p] [DSNP] [JPN_ENG_CHT_SUB]

Category:
Date:
2023-11-30 11:15 UTC
Submitter:
Seeders:
2
Information:
Leechers:
0
File size:
571.4 MiB
Completed:
690
Info hash:
54618c3a377f60a5b536eec3d3720f6ff224171e
HD 720p from Disney+. Japanese, English and Chinese subtitles added. ![alt text](https://i.ibb.co/09rDgDC/myhomehero.jpg) ![alt text](https://i.ibb.co/X3xcLZw/My-Home-Hero-EP07-720p-DSNP-WEB-DL-AAC2-0-H-264-Magic-Star-mkv.jpg) ``` General Unique ID : 107172201300635675902354946975860954527 (0x50A09D7BB884352A641600411F82959F) Complete name : My.Home.Hero.EP07.720p.DSNP.WEB-DL.AAC2.0.H.264-MagicStar.mkv Format : Matroska Format version : Version 4 File size : 571 MiB Duration : 23 min 47 s Overall bit rate mode : Variable Overall bit rate : 3 358 kb/s Frame rate : 23.976 FPS Encoded date : 2023-11-29 10:40:44 UTC Writing application : mkvmerge v50.0.0 ('Awakenings') 64-bit Writing library : libebml v1.4.0 + libmatroska v1.6.2 Cover : Yes Attachments : cover.png Video ID : 1 Format : AVC Format/Info : Advanced Video Codec Format profile : High@L3.1 Format settings : CABAC / 4 Ref Frames Format settings, CABAC : Yes Format settings, Reference fra : 4 frames Codec ID : V_MPEG4/ISO/AVC Duration : 23 min 46 s Bit rate mode : Variable Bit rate : 3 168 kb/s Maximum bit rate : 6 375 kb/s Width : 1 280 pixels Height : 720 pixels Display aspect ratio : 16:9 Frame rate mode : Constant Frame rate : 23.976 (24000/1001) FPS Color space : YUV Chroma subsampling : 4:2:0 Bit depth : 8 bits Scan type : Progressive Bits/(Pixel*Frame) : 0.143 Stream size : 539 MiB (94%) Default : Yes Forced : No Color range : Limited Color primaries : BT.709 Transfer characteristics : BT.709 Matrix coefficients : BT.709 Audio ID : 2 Format : AAC LC Format/Info : Advanced Audio Codec Low Complexity Codec ID : A_AAC-2 Duration : 23 min 47 s Bit rate : 125 kb/s Channel(s) : 2 channels Channel layout : L R Sampling rate : 48.0 kHz Frame rate : 46.875 FPS (1024 SPF) Compression mode : Lossy Stream size : 21.3 MiB (4%) Title : 日本語 [オリジナル] Language : Japanese Default : Yes Forced : No ```

File list

  • [MagicStar] My Home Hero EP07 [WEBDL] [720p] [DSNP] [JPN_ENG_CHT_SUB]
    • My.Home.Hero.EP07.720p.DSNP.WEB-DL.AAC2.0.H.264-MagicStar.Cht.srt (22.3 KiB)
    • My.Home.Hero.EP07.720p.DSNP.WEB-DL.AAC2.0.H.264-MagicStar.Eng.srt (28.7 KiB)
    • My.Home.Hero.EP07.720p.DSNP.WEB-DL.AAC2.0.H.264-MagicStar.Jpn.srt (26.5 KiB)
    • My.Home.Hero.EP07.720p.DSNP.WEB-DL.AAC2.0.H.264-MagicStar.mkv (571.3 MiB)