[MagicStar] Tatoe Anata wo Wasuretemo EP06 [WEBDL] [1080p] [JPN_SUB]

Category:
Date:
2023-11-26 21:19 UTC
Submitter:
Seeders:
4
Information:
Leechers:
0
File size:
943.1 MiB
Completed:
694
Info hash:
1ebf6a94d6f295f4adddc9a6870c2713d22afa42
HD 1080p from TVer. Japanese subtitles added. Audio description added. ![alt text](https://i.ibb.co/QXj88Rb/SID0094262.jpg) ![alt text](https://i.ibb.co/ngBQtPp/Magic-Star-Tatoe-Anata-wo-Wasuretemo-EP06-WEBDL-1080p-mkv.jpg) ``` General Unique ID : 281938139417429499689246888364822571214 (0xD41B4F7E08DA402F257B38B0CF7128CE) Complete name : [MagicStar] Tatoe Anata wo Wasuretemo EP06 [WEBDL] [1080p].mkv Format : Matroska Format version : Version 4 File size : 943 MiB Duration : 45 min 9 s Overall bit rate mode : Variable Overall bit rate : 2 920 kb/s Frame rate : 29.970 FPS Encoded date : 2023-11-26 18:12:19 UTC Writing application : mkvmerge v50.0.0 ('Awakenings') 64-bit Writing library : libebml v1.4.0 + libmatroska v1.6.2 Video ID : 1 Format : AVC Format/Info : Advanced Video Codec Format profile : High@L4 Format settings : CABAC / 4 Ref Frames Format settings, CABAC : Yes Format settings, Reference fra : 4 frames Codec ID : V_MPEG4/ISO/AVC Duration : 45 min 8 s Bit rate mode : Variable Bit rate : 2 533 kb/s Maximum bit rate : 3 803 kb/s Width : 1 920 pixels Height : 1 080 pixels Display aspect ratio : 16:9 Frame rate mode : Constant Frame rate : 29.970 (29970/1000) FPS Original frame rate : 29.970 (30000/1001) FPS Color space : YUV Chroma subsampling : 4:2:0 Bit depth : 8 bits Scan type : Progressive Bits/(Pixel*Frame) : 0.041 Stream size : 818 MiB (87%) Default : Yes Forced : No Color range : Limited Color primaries : BT.709 Transfer characteristics : BT.709 Matrix coefficients : BT.709 Audio #1 ID : 2 Format : AAC LC Format/Info : Advanced Audio Codec Low Complexity Codec ID : A_AAC-2 Duration : 45 min 9 s Bit rate : 192 kb/s Channel(s) : 2 channels Channel layout : L R Sampling rate : 48.0 kHz Frame rate : 46.875 FPS (1024 SPF) Compression mode : Lossy Stream size : 61.9 MiB (7%) Title : 日本語 [オリジナル] Language : Japanese Default : Yes Forced : No Audio #2 ID : 3 Format : AAC LC Format/Info : Advanced Audio Codec Low Complexity Codec ID : A_AAC-2 Duration : 45 min 9 s Bit rate : 192 kb/s Channel(s) : 2 channels Channel layout : L R Sampling rate : 48.0 kHz Frame rate : 46.875 FPS (1024 SPF) Compression mode : Lossy Stream size : 62.0 MiB (7%) Title : 日本語 [解説放送音声] Language : Japanese Default : No Forced : No ```

File list