[MagicStar] Kinou Nani Tabeta? Season2 EP08 [WEBDL] [1080p]

Category:
Date:
2023-11-25 14:40 UTC
Submitter:
Seeders:
3
File size:
628.9 MiB
Completed:
1018
Info hash:
5c64799e5eae614ef74d4ce95180107d33e90cec
HD 1080p from TVer. ![alt text](https://i.ibb.co/GCFmBQk/1000664-003.jpg) ![alt text](https://i.ibb.co/k4GfK9t/Magic-Star-Kinou-Nani-Tabeta-Season2-EP08-WEBDL-1080p-mkv.jpg) ``` General Unique ID : 27262322110888348312142674636353919510 (0x1482884194C6930DC8DFEBC4B5B55A16) Complete name : [MagicStar] Kinou Nani Tabeta? Season2 EP08 [WEBDL] [1080p].mkv Format : Matroska Format version : Version 4 File size : 629 MiB Duration : 30 min 25 s Overall bit rate mode : Variable Overall bit rate : 2 890 kb/s Frame rate : 29.970 FPS Encoded date : 2023-11-25 13:46:12 UTC Writing application : mkvmerge v50.0.0 ('Awakenings') 64-bit Writing library : libebml v1.4.0 + libmatroska v1.6.2 Video ID : 1 Format : AVC Format/Info : Advanced Video Codec Format profile : High@L4 Format settings : CABAC / 4 Ref Frames Format settings, CABAC : Yes Format settings, Reference fra : 4 frames Codec ID : V_MPEG4/ISO/AVC Duration : 30 min 25 s Bit rate mode : Variable Bit rate : 2 696 kb/s Maximum bit rate : 4 045 kb/s Width : 1 920 pixels Height : 1 080 pixels Display aspect ratio : 16:9 Frame rate mode : Constant Frame rate : 29.970 (29970/1000) FPS Original frame rate : 29.970 (30000/1001) FPS Color space : YUV Chroma subsampling : 4:2:0 Bit depth : 8 bits Scan type : Progressive Bits/(Pixel*Frame) : 0.043 Stream size : 587 MiB (93%) Default : Yes Forced : No Color range : Limited Color primaries : BT.709 Transfer characteristics : BT.709 Matrix coefficients : BT.709 Audio ID : 2 Format : AAC LC Format/Info : Advanced Audio Codec Low Complexity Codec ID : A_AAC-2 Duration : 30 min 25 s Bit rate : 192 kb/s Channel(s) : 2 channels Channel layout : L R Sampling rate : 48.0 kHz Frame rate : 46.875 FPS (1024 SPF) Compression mode : Lossy Stream size : 41.7 MiB (7%) Title : 日本語 [オリジナル] Language : Japanese Default : Yes Forced : No ```

File list