Classroom.of.the.Elite.S02.1080p.BluRay.10-Bit.Dual-Audio.FLAC5.1.x265-YURASUKA (Youkoso Jitsuryoku Shijou Shugi no Kyoushitsu e)

Category:
Date:
2023-11-25 05:54 UTC
Submitter:
Seeders:
45
Information:
Leechers:
1
File size:
11.3 GiB
Completed:
2744
Info hash:
9ee5a5ed5df01cba187dbfa8c0d12c884b299dde
Classroom of the Elite / Youkoso Jitsuryoku Shijou Shugi no Kyoushitsu e Season 2 (2022) A/V Source: [Anon@Nyaa](https://nyaa.si/view/1667863) (JPBD) EN Audio Source: Zanros@U2 (USBD) Subtitles Source: [EMBER@Nyaa](https://nyaa.si/view/1742778) [neoDESU] [Encode Comparison](https://slow.pics/c/c9ZtbMBh) ``` Complete name : Classroom.of.the.Elite.S02E12.1080p.BluRay.10-Bit.Dual-Audio.FLAC5.1.x265-YURASUKA.mkv Format : Matroska Format version : Version 4 File size : 1 012 MiB Duration : 23 min 41 s Overall bit rate mode : Variable Overall bit rate : 5 973 kb/s Frame rate : 23.976 FPS Movie name : Classroom of the Elite - S02E12 - YURASUKA Encoded date : 2023-11-25 04:23:11 UTC Writing application : mkvmerge v80.0 ('Roundabout') 64-bit Writing library : libebml v1.4.4 + libmatroska v1.7.1 Cover : Yes Attachments : cover.jpg / DFMinC1_0.ttf / Passing Notes.ttf / CRONOSPRO-BOLD.OTF / arial.ttf / arialbd.ttf / comic.ttf / comicbd.ttf / Roboto-Medium.ttf / Roboto-MediumItalic.ttf / times.ttf / timesbd.ttf / trebuc.ttf / trebucbd.ttf / verdana.ttf / verdanab.ttf Video ID : 1 Format : HEVC Format/Info : High Efficiency Video Coding Format profile : Main 10@L5@High Codec ID : V_MPEGH/ISO/HEVC Duration : 23 min 41 s Bit rate : 3 727 kb/s Width : 1 920 pixels Height : 1 080 pixels Display aspect ratio : 16:9 Frame rate mode : Constant Frame rate : 23.976 (24000/1001) FPS Color space : YUV Chroma subsampling : 4:2:0 Bit depth : 10 bits Bits/(Pixel*Frame) : 0.075 Stream size : 631 MiB (62%) Title : YURASUKA 1080p x265 Writing library : x265 3.5:[Linux][GCC 11.2.0][64 bit] 10bit Encoding settings : cpuid=1111039 / frame-threads=5 / numa-pools=32 / wpp / no-pmode / no-pme / no-psnr / no-ssim / log-level=2 / input-csp=1 / input-res=1920x1080 / interlace=0 / total-frames=0 / level-idc=0 / high-tier=1 / uhd-bd=0 / ref=6 / no-allow-non-conformance / no-repeat-headers / annexb / no-aud / no-hrd / info / hash=0 / no-temporal-layers / open-gop / min-keyint=1 / keyint=360 / gop-lookahead=0 / bframes=16 / b-adapt=2 / b-pyramid / bframe-bias=0 / rc-lookahead=72 / lookahead-slices=4 / scenecut=40 / hist-scenecut=0 / radl=0 / no-splice / no-intra-refresh / ctu=32 / min-cu-size=8 / rect / amp / max-tu-size=32 / tu-inter-depth=3 / tu-intra-depth=3 / limit-tu=4 / rdoq-level=2 / dynamic-rd=0.00 / no-ssim-rd / signhide / tskip / nr-intra=0 / nr-inter=0 / no-constrained-intra / strong-intra-smoothing / max-merge=5 / limit-refs=3 / limit-modes / me=3 / subme=7 / merange=57 / temporal-mvp / no-frame-dup / no-hme / weightp / weightb / analyze-src-pics / deblock=0:0 / no-sao / no-sao-non-deblock / rd=6 / selective-sao=0 / no-early-skip / rskip / no-fast-intra / no-tskip-fast / no-cu-lossless / b-intra / no-splitrd-skip / rdpenalty=0 / psy-rd=2.00 / psy-rdoq=2.00 / no-rd-refine / no-lossless / cbqpoffs=-2 / crqpoffs=-2 / rc=crf / crf=16.0 / qcomp=0.72 / qpstep=4 / stats-write=0 / stats-read=0 / vbv-maxrate=15000 / vbv-bufsize=30000 / vbv-init=0.9 / min-vbv-fullness=50.0 / max-vbv-fullness=80.0 / crf-max=0.0 / crf-min=0.0 / ipratio=1.40 / pbratio=1.30 / aq-mode=3 / aq-strength=0.85 / cutree / zone-count=0 / no-strict-cbr / qg-size=32 / no-rc-grain / qpmax=69 / qpmin=0 / no-const-vbv / sar=1 / overscan=0 / videoformat=5 / range=0 / colorprim=1 / transfer=1 / colormatrix=1 / chromaloc=0 / display-window=0 / cll=0,0 / min-luma=0 / max-luma=1023 / log2-max-poc-lsb=8 / vui-timing-info / vui-hrd-info / slices=1 / no-opt-qp-pps / no-opt-ref-list-length-pps / no-multi-pass-opt-rps / scenecut-bias=0.05 / hist-threshold=0.03 / no-opt-cu-delta-qp / no-aq-motion / no-hdr10 / no-hdr10-opt / no-dhdr10-opt / no-idr-recovery-sei / analysis-reuse-level=0 / analysis-save-reuse-level=0 / analysis-load-reuse-level=0 / scale-factor=0 / refine-intra=0 / refine-inter=0 / refine-mv=1 / refine-ctu-distortion=0 / no-limit-sao / ctu-info=0 / no-lowpass-dct / refine-analysis-type=0 / copy-pic=1 / max-ausize-factor=1.0 / no-dynamic-refine / no-single-sei / no-hevc-aq / no-svt / no-field / qp-adaptation-range=1.00 / scenecut-aware-qp=0conformance-window-offsets / right=0 / bottom=0 / decoder-max-rate=0 / no-vbv-live-multi-pass Language : Japanese Default : Yes Forced : No Color range : Limited Color primaries : BT.709 Transfer characteristics : BT.709 Matrix coefficients : BT.709 Audio #1 ID : 2 Format : FLAC Format/Info : Free Lossless Audio Codec Codec ID : A_FLAC Duration : 23 min 38 s Bit rate mode : Variable Bit rate : 1 431 kb/s Channel(s) : 6 channels Channel layout : L R C LFE Ls Rs Sampling rate : 48.0 kHz Frame rate : 10.417 FPS (4608 SPF) Bit depth : 16 bits Compression mode : Lossless Delay relative to video : 1 s 460 ms Stream size : 242 MiB (24%) Title : English FLAC 5.1 Writing library : Lavf60.16.100 Language : English Default : Yes Forced : No MD5 of the unencoded content : 4D8F42315E85A41490CA9342A31470EF Audio #2 ID : 3 Format : FLAC Format/Info : Free Lossless Audio Codec Codec ID : A_FLAC Duration : 23 min 41 s Bit rate mode : Variable Bit rate : 759 kb/s Channel(s) : 2 channels Channel layout : L R Sampling rate : 48.0 kHz Frame rate : 10.417 FPS (4608 SPF) Bit depth : 16 bits Compression mode : Lossless Stream size : 129 MiB (13%) Title : Japanese FLAC 2.0 Writing library : Lavf60.16.100 Language : Japanese Default : No Forced : No MD5 of the unencoded content : C6BC60AE47D5ADFE45A5CB4994C472DC Text #1 ID : 4 Format : ASS Codec ID : S_TEXT/ASS Codec ID/Info : Advanced Sub Station Alpha Duration : 23 min 22 s Bit rate : 1 285 b/s Frame rate : 0.697 FPS Count of elements : 978 Compression mode : Lossless Stream size : 220 KiB (0%) Title : Signs & Songs [neoDESU] Language : English Default : Yes Forced : Yes Text #2 ID : 5 Format : ASS Codec ID : S_TEXT/ASS Codec ID/Info : Advanced Sub Station Alpha Duration : 23 min 22 s Bit rate : 1 384 b/s Frame rate : 0.906 FPS Count of elements : 1271 Compression mode : Lossless Stream size : 237 KiB (0%) Title : Full Subtitles [neoDESU] Language : English Default : No Forced : No Menu 00:00:00.000 : en:Intro 00:00:37.037 : en:OP 00:02:07.001 : en:Part A 00:11:48.040 : en:Part B 00:22:10.037 : en:ED ``` Dead end for a sucker that’s a sucker like me. 私のようなカモの行き止まりです。

File list

  • Classroom.of.the.Elite.S02.1080p.BluRay.10-Bit.Dual-Audio.FLAC5.1.x265-YURASUKA
    • Classroom.of.the.Elite.S02E01.1080p.BluRay.10-Bit.Dual-Audio.FLAC5.1.x265-YURASUKA.mkv (901.1 MiB)
    • Classroom.of.the.Elite.S02E02.1080p.BluRay.10-Bit.Dual-Audio.FLAC5.1.x265-YURASUKA.mkv (844.0 MiB)
    • Classroom.of.the.Elite.S02E03.1080p.BluRay.10-Bit.Dual-Audio.FLAC5.1.x265-YURASUKA.mkv (850.0 MiB)
    • Classroom.of.the.Elite.S02E04.1080p.BluRay.10-Bit.Dual-Audio.FLAC5.1.x265-YURASUKA.mkv (932.3 MiB)
    • Classroom.of.the.Elite.S02E05.1080p.BluRay.10-Bit.Dual-Audio.FLAC5.1.x265-YURASUKA.mkv (883.6 MiB)
    • Classroom.of.the.Elite.S02E06.1080p.BluRay.10-Bit.Dual-Audio.FLAC5.1.x265-YURASUKA.mkv (857.3 MiB)
    • Classroom.of.the.Elite.S02E07.1080p.BluRay.10-Bit.Dual-Audio.FLAC5.1.x265-YURASUKA.mkv (830.0 MiB)
    • Classroom.of.the.Elite.S02E08.1080p.BluRay.10-Bit.Dual-Audio.FLAC5.1.x265-YURASUKA.mkv (973.1 MiB)
    • Classroom.of.the.Elite.S02E09.1080p.BluRay.10-Bit.Dual-Audio.FLAC5.1.x265-YURASUKA.mkv (822.5 MiB)
    • Classroom.of.the.Elite.S02E10.1080p.BluRay.10-Bit.Dual-Audio.FLAC5.1.x265-YURASUKA.mkv (840.1 MiB)
    • Classroom.of.the.Elite.S02E11.1080p.BluRay.10-Bit.Dual-Audio.FLAC5.1.x265-YURASUKA.mkv (890.1 MiB)
    • Classroom.of.the.Elite.S02E12.1080p.BluRay.10-Bit.Dual-Audio.FLAC5.1.x265-YURASUKA.mkv (1011.9 MiB)
    • Classroom.of.the.Elite.S02E13.1080p.BluRay.10-Bit.Dual-Audio.FLAC5.1.x265-YURASUKA.mkv (893.3 MiB)