[MagicStar] Ichiban Suki na Hana EP07 [WEBDL] [1080p] [FOD] [JPN_SUB]

Category:
Date:
2023-11-25 01:55 UTC
Submitter:
Seeders:
11
File size:
1.8 GiB
Completed:
1480
Info hash:
31d52b337bf6b7ecb8ba01f70cae8af69a8ce429
HD 1080p from FOD. Japanese subtitles added. ![alt text](https://i.ibb.co/8DprWJK/98cef8c442102dca937c057e14c787ca649888c9ed16c775a1a8ad7a4d8128c4.jpg) ![alt text](https://i.ibb.co/3NCBtfg/Ichiban-Suki-na-Hana-EP07-1080p-FOD-WEB-DL-AAC2-0-H-264-Magic-Star-mkv.jpg) ``` General Unique ID : 275042908655659669941852570895424546132 (0xCEEB565E58FB00D8EB61ED657551E554) Complete name : Ichiban.Suki.na.Hana.EP07.1080p.FOD.WEB-DL.AAC2.0.H.264-MagicStar.mkv Format : Matroska Format version : Version 4 File size : 1.75 GiB Duration : 46 min 21 s Overall bit rate mode : Variable Overall bit rate : 5 405 kb/s Frame rate : 29.970 FPS Encoded date : 2023-11-23 14:44:02 UTC Writing application : mkvmerge v50.0.0 ('Awakenings') 64-bit Writing library : libebml v1.4.0 + libmatroska v1.6.2 Video ID : 1 Format : AVC Format/Info : Advanced Video Codec Format profile : High@L4.1 Format settings : CABAC / 2 Ref Frames Format settings, CABAC : Yes Format settings, Reference fra : 2 frames Codec ID : V_MPEG4/ISO/AVC Duration : 46 min 21 s Bit rate mode : Variable Bit rate : 5 210 kb/s Maximum bit rate : 15.0 Mb/s Width : 1 920 pixels Height : 1 080 pixels Display aspect ratio : 16:9 Frame rate mode : Constant Frame rate : 29.970 (29970/1000) FPS Original frame rate : 29.970 (30000/1001) FPS Color space : YUV Chroma subsampling : 4:2:0 Bit depth : 8 bits Scan type : Progressive Bits/(Pixel*Frame) : 0.084 Stream size : 1.69 GiB (96%) Default : Yes Forced : No Color range : Limited Color primaries : BT.709 Transfer characteristics : BT.709 Matrix coefficients : BT.709 Audio ID : 2 Format : AAC LC Format/Info : Advanced Audio Codec Low Complexity Codec ID : A_AAC-2 Duration : 46 min 21 s Bit rate : 192 kb/s Channel(s) : 2 channels Channel layout : L R Sampling rate : 48.0 kHz Frame rate : 46.875 FPS (1024 SPF) Compression mode : Lossy Stream size : 63.7 MiB (4%) Title : 日本語 [オリジナル] Language : Japanese Default : Yes Forced : No ```

File list