[neoDESU] Masamune-kun's Revenge R [Season 2] [BD 1080p x265 HEVC OPUS AAC] [Dual Audio] Masamune-kun no Revenge R

Category:
Date:
2023-11-20 15:44 UTC
Submitter:
Seeders:
10
Information:
Leechers:
1
File size:
2.4 GiB
Completed:
1025
Info hash:
e6e3907da1452f7c4de1b6ad27bf0cb897af6cf7
![](https://i.lensdump.com/i/6BKULK.png) *Come hang out in **[Discord](https://discord.gg/47Q7FdB54e)*** #### **[Masamune-kun's Revenge R [Season 2]](https://myanimelist.net/anime/51498/Masamune-kun_no_Revenge_R)** ▶️ **[Trailer](https://www.youtube.com/watch?v=dJSjZnKDbHk)** --- **Notes:** . Inserted Japanese audio segment for new BD previews into English audio --- **Synopsis** With the tumultuous cultural festival behind him, Masamune Makabe continues his efforts to carry out his revenge: to make the "Cruel Princess" Aki Adagaki deeply fall for him and then immediately dump her. As his class is going on a trip to Paris, widely known as the City of Love, Masamune has the perfect opportunity to get even for his childhood heartbreak. Before Masamune can impress Aki, the two meet Muriel Besson, a French high school otaku who aspires to create a romantic comedy manga series. Muriel believes Masamune is the ideal model for the protagonist and asks for his help. The boy reluctantly agrees, dragging Aki along to provide inspiration for the love interest's character. But to do so, the two must show Muriel what Japanese love is like. To make matters more complicated, Kanetsugu Gasou is masquerading as Aki's childhood friend, Masamune, to trick and use her. With mix-ups and love rivals galore, Masamune's revenge is proving to be quite the difficult task. ![](https://a.l3n.co/i/mahPGK.png) --- **Language Options** I included two simple scripts that you can apply to these files to do the following (Windows only): 1. Make [Single Audio] Japanese: Throws out *English audio* and *Signs&Songs subtitles* tracks 2. Make [Single Audio] English: Throws out *Japanese audio* and *Dialogue subtitles* tracks To apply these put all the video files into the *Language Options* folder and run the .bat file. *Don't combine them and only use them once together with the base files.* --- **Source** 🗃️ Video and JPN Audio (JPN BDMV): **[[Lupin the Nerd]](https://nyaa.si/view/1745264)** 🗃️ ENG Audio (WEB): **[[Yameii]](https://nyaa.si/view/1689380)** 🗃️ Subtitles: **[[smol]](https://nyaa.si/view/1720450)** 💬 *Subtitles Info: [smol]* *Thank you all for making this possible <3* --- **Media Info** 🆔 **[Full Mediainfo incl. Encoder Settings](https://pastebin.com/YSnHXBu0)** ``` General Unique ID : 136540210001865943055141299351332283574 (0x66B8B01A940681BC78AAFE655A0364B6) Complete name : Masamune-kun's Revenge - S02E01.mkv Format : Matroska Format version : Version 4 File size : 212 MiB Duration : 23 min 58 s Overall bit rate : 1 236 kb/s Encoded date : UTC 2023-11-20 12:53:16 Writing application : mkvmerge v72.0.0 ('Minuano (Six-eight)') 64-bit Writing library : libebml v1.4.4 + libmatroska v1.7.1 Cover : Yes Attachments : BELANOSIMA-BOLD.TTF / cover.png / Cabin-SemiBoldItalic.ttf / Cabin-SemiBold.ttf / HOUSEHOLIDAY-SANS.TTF / arial_2.ttf / arialbd_0.ttf / HELVETICA.TTF Video ID : 1 Format : HEVC Format/Info : High Efficiency Video Coding Format profile : Main 10@L4@High Codec ID : V_MPEGH/ISO/HEVC Duration : 23 min 58 s Bit rate : 938 kb/s Width : 1 920 pixels Height : 1 080 pixels Display aspect ratio : 16:9 Frame rate mode : Constant Frame rate : 23.976 (24000/1001) FPS Color space : YUV Chroma subsampling : 4:2:0 Bit depth : 10 bits Bits/(Pixel*Frame) : 0.019 Stream size : 161 MiB (76%) Writing library : x265 3.5+37+12-4e46995bc:[Windows][MSVC 1931][64 bit] 10bit Encoding settings : <Check Link Above> Default : Yes Forced : No Audio #1 ID : 2 Format : AAC LC Format/Info : Advanced Audio Codec Low Complexity Codec ID : A_AAC-2 Duration : 23 min 58 s Bit rate : 132 kb/s Channel(s) : 2 channels Channel layout : L R Sampling rate : 48.0 kHz Frame rate : 46.875 FPS (1024 SPF) Compression mode : Lossy Stream size : 22.4 MiB (11%) Title : English Language : English Default : Yes Forced : No Audio #2 ID : 3 Format : Opus Codec ID : A_OPUS Duration : 23 min 58 s Bit rate : 129 kb/s Channel(s) : 2 channels Channel layout : L R Sampling rate : 48.0 kHz Frame rate : 50.000 FPS (960 SPF) Bit depth : 16 bits Compression mode : Lossy Stream size : 22.1 MiB (10%) Title : Japanese Language : Japanese Default : No Forced : No Text #1 ID : 4 Format : ASS Codec ID : S_TEXT/ASS Codec ID/Info : Advanced Sub Station Alpha Duration : 23 min 14 s Bit rate : 413 b/s Frame rate : 0.349 FPS Count of elements : 486 Compression mode : Lossless Stream size : 70.5 KiB (0%) Title : Signs & Songs Language : English Default : No Forced : Yes Text #2 ID : 5 Format : ASS Codec ID : S_TEXT/ASS Codec ID/Info : Advanced Sub Station Alpha Duration : 23 min 51 s Bit rate : 519 b/s Frame rate : 0.580 FPS Count of elements : 830 Compression mode : Lossless Stream size : 90.7 KiB (0%) Title : Dialogue Language : English Default : Yes Forced : No Menu 00:00:00.000 : :Intro 00:01:58.010 : :OP 00:03:27.980 : :Episode 00:22:10.930 : :ED 00:23:40.940 : :Preview ```

File list

  • [neoDESU] Masamune-kun's Revenge [Season 2] [BD 1080p x265 HEVC OPUS AAC] [Dual Audio]
    • Language Options
      • 1. Make [Single Audio] English.bat (254 Bytes)
      • 2. Make [Single Audio] Japanese.bat (254 Bytes)
      • mkvmerge.exe (9.6 MiB)
      • readme.txt (511 Bytes)
    • Masamune-kun's Revenge - S02E01.mkv (211.8 MiB)
    • Masamune-kun's Revenge - S02E02.mkv (222.0 MiB)
    • Masamune-kun's Revenge - S02E03.mkv (197.2 MiB)
    • Masamune-kun's Revenge - S02E04.mkv (240.2 MiB)
    • Masamune-kun's Revenge - S02E05.mkv (205.9 MiB)
    • Masamune-kun's Revenge - S02E06.mkv (176.5 MiB)
    • Masamune-kun's Revenge - S02E07.mkv (171.7 MiB)
    • Masamune-kun's Revenge - S02E08.mkv (183.9 MiB)
    • Masamune-kun's Revenge - S02E09.mkv (204.1 MiB)
    • Masamune-kun's Revenge - S02E10.mkv (189.3 MiB)
    • Masamune-kun's Revenge - S02E11.mkv (200.7 MiB)
    • Masamune-kun's Revenge - S02E12.mkv (196.0 MiB)
Thank you very much. ^^ Edit: I'ld be very grateful if you could also provide the lossless audios.
lossless audio goes against the concept of a mini encode

neoborn (uploader)

User
**@KnSnaru** These files are made to fit my exact needs and this audio format suits me best. But I am sure that there will be raws from a couple of people that include the Japanese audio in FLAC format shortly.
@neoborn Yes, I know. I'm just too impatient. Let's not misunderstand each other: I hunt for such space-saving rips, but without sacrificing sound quality, for which I've the appropriate equipment in addition to my above-average sense of hearing.
Can you do season 1 too? tyvm

neoborn (uploader)

User
**@jhii** Got them already from somewhere. Don't know which ones I took though :>
@neoborn They are not small encode tho T.T